&title=Endless Story
&artist=田村ゆかり
&first=-1.53
&des_1=Cube³
&des_2=Cube³
&des_3=Cube³
&des_4=Cube³
&des_5=Cube³
&lv_5=13
&des_6=Cube³
&des_7=Cube³
&des=Cube³
&inote_5=(187)
{1},
{1},
(79)
{96},,,{8}4,3,2pp4[8:3],,8h[4:1],,,,
{8}3/6,4,7/5-2[8:1],8,1pp2[16:3],8,7h[4:1],,
{8}2,1,6-3[16:3]/8,,3<6[16:3],,2h[4:1],,
{8}6,7,4/8,3,2pp4[2:1]/6,7,8bqq6[32:10]/2,
{96},,,,,,,,,
(187)
{1},
{8}4,7,3,6,2b>5[8:1],,8,,
{8}7<4[8:1]/5,,1,,2>5[8:1]/4,,8,,
{8}6>3[8:1]/5,,1,,2-5[8:1]/8,,6>3[8:1],,
{8}8,,1-6[8:1]/2-5[8:1],,1/2,,4,,
{8}8,3,7,2,6b>3[8:1],,1,,
{8}3<6[8:1]/4,,8,,6>3[8:1]/5,,1,,
{8}2>5[8:1]/8,,1v4[8:1]*q5[8:1],,1bqq3[4:3],,6,,
{8}5,,4,4<1[8:3],,,,,
{16}2,3,4,5,1,8,7,6,5/1b-4[8:1],,,,7,,,,
{8}6-3[8:1]/5,,7,,6-3[8:1],7,8,,
{8}6-3[8:1],7,8,,4-7[8:1],,4/3,2,
{8}1,1,7,7,8,8q4[8:1],,5,
{8},6qq1[8:5],7,8,1,,8,,
{8}7,,6/1<6[8:1],2,1/3,,1-6[8:1],2,
{8}1/3,,4,,3/5,,2pp1[2:1],4<1[16:7],
{8},,,,,,2/5,3/6,
{16}4,6,4,6,5,7,5,7,6b-3[8:1],,,,8,,,,
{8}7-2[8:1]/1,,5,,7-2[8:1],6,5,,
{8}7-2[8:1],6,5,,1-6[8:1],,1/2,3,
{8}4,4,7,7,5,5p1[8:1],,7,
{8},6qq3[8:5],7,8,1,,8,,
{8}7,,4-7[8:1],3,2/4,,4<7[8:1],3,
{8}2/4,,1-6[8:1],,1/5-2[8:1],,5/2,,
{8}1pp3[8:3]/8qq6[8:3],,1/8,,,,2/7,,
{8}1b/5,1b/5,1b/5,,2/6,,1-5[8:1],8,
{8}1/7,,8-4[8:1],1,2/8,2-6[8:1],,2/5,
{16},,5,,6/3,,7,,8/4,,,,5-2[8:1],,6,,
{16}5/7,,,,4-7[8:1],,3,,2/4qq5[8:3],,,,8,,7,,
{16}6<1[8:1],,,,4/6,,,,3/8,,,,1<6[8:1],,2,,
{16}1/3,,,,8>3[8:1],,7,,6/8,,5p4[8:3],,,,3,,
{16},,2,,1-5[8:1],,,,8/1<3[16:9],,,,3,,3,,
{8}2,2,1,,8>6[16:9]/5,,6,6,
{8}7,7,8,,1/4,1,2/8,8,
{8}4/7,7,6/8,6,8b/7b,6b/1b,5b/2b,,
{24}2h[4:1],,,,,,6<1[4:1],,,,,,6/1>4[48:7],2>5[48:9],3<6[48:11],,,,,,,,,,
{24}1h[4:1],,,,,,7>2[4:1],,,,,,7/2>5[48:7],3<6[48:9],4<7[48:11],,,,,,,,,,
{8}1,2,3/8,,1-5[8:1],,1/7-3[8:1],6,
{8}7>5[2:1]/8,,5,,6,,7,7,
{8}5,4,8/3>8[4:1],,{24}3/8<5[48:7],7<4[48:9],6>3[48:11],,,,,,,,,,
{8}1,8,7/4-8[8:1],,4/6-2[8:1],,6,5,
{8}4<2[4:1],,4/7,,6h[4:1],,8-4[8:1],1,
{8}2/8,,3pp3[4:1]*qq3[4:1],3,,,,,
{16}6,4,7,5,8<5[4:1],,,,{24}8/5>2[48:7],4>1[48:9],3>8[48:11],,,,,,,,,,
{8}5,4,3/7<8[2:1],,{24}7/4>1[48:7],3>8[48:9],2<7[48:11],,,,,,,,,,
{8}4,3,2>5[8:1]/6,,2/6-1[8:1],,6/4-8[8:1],3,
{8}4/6,,7<1[16:5],,7/4h[4:1],,,,
{8}8,7,6/2>5[4:1],,{24}2/5<8[48:7],6<1[48:9],7>2[48:11],,,,,,,,,,
{8}4,5,6/2,7,4/8-4[8:1],3,2<4[16:5],,
{8}2/7h[4:1],,,,{16}4,8,4,8,3,7,3,7,
{16}2,6,2,6,1,5,1,5,8,4,8,4,8,4,8,4,
{32}8b,1,2,3,4,5,6,7,8-4[8:1],,,,,,,,{8}1b/8b,,3,,
{8}6-1[8:1]/2,,4,,3-8[8:1]/7,,5,,
{8}7-4[8:1]/3,,1,,2-5[8:1],,2/6-1[8:1],,
{8}3-8[8:1]/6,,3/7-4[8:1],,7/1,,2,4,
{8}3,5,4/6,3,2b>5[8:1]/5,,8,,
{8}6<1[8:1]/1,,4,,4>1[8:1]/7,,5,,7<4[8:1]/1,,8,,1/5,1/5,2/6,2/6,
{8}3/7,3/7,{16}8,7,6,5,4bw8[8:9],,,,,,,,
{1},
E
