&title=DiSANiMATE
&artist=seatrus
&first=0
&des=Happy & Sad
&lv_5=14+
&lv_6=15+
&lv_7=??
&inote_1=
&inote_5=(154)
{4},,,,,{16},{32}5h[30:20]/2,3,4h[3:1],,,,,,,,,,,,,,{16},,,,,2,,3,,6,,5,,7hx[4:3],,1h[4:1],,,,,,,,,,Cf,,,,,,,,,5h[8:1]/1,,,,3/2h[1:1],,/6,,3,,5,,4,,6,,5,,8,,{32},,3,4,{16}5h[9:8],,,,,2,,,,,,8,,{32},,,,{16},5hx[1:1],,,,,,,,,,,E2,,,,E1,,E8,,E7,,E6,,E5,,E4,,E3,,E2,,E1,E8,E7,E6,E5,E4,E3,,E2,,,,E1,,,,{32}1b,2x/8x,7x/3x,6x/4x,5hb[3:1],,,,
(164){16},,,,Ch[3:1],,,,B7/B6,,,,,,5-1[6:1]/3,,,,,,,,2b>7[4:1],,,,,,,,,,
(174)5h[9:1]/4,4hb[9:1],,,6-3-8[3:1],,3,,6,,,,,,,,1,2,3,4b,8,7,6,2b,3,4,5,6,
(184)7hb[4:1],,,,8h[4:1],,,,1<1[4:1],,1h[8:1],,,,,,
(194),,,,2,,7,,3,,6,,4,,5,,
(204)D5,A4,D4,A3,{8}D3f/6b,,5b/D2f,,4b/A8f,,
(222)4h[6:1]/5,,4/5h[6:1],,4h[6:1]/5,,4/5h[6:1],,4/5,4hb[24:64]/5hb[17:64],,,,,,,,,,,,,,,,,,,,,,,,,,,,,,,2h[1:1],,,,,,,,,,,,Cf/E3/E7,,,,6h[1:1],,,,,,,,,,,,{16}E2,E3,E4,E5,E6,E7,E8,E1,
{32},3b,,,6b,,,4hb[10:1],,,5hb[4:1],,,,,,,,,,,,,,,7b,,,4b,,,6b,,,2b,,,4b,,,1b,,,,,,,,D3,A3,D4,A4,D5,A5,D6,A6,D7,A7,D8,A8,,,,,3,,,B8,,,2,,,B7,,,1,,,B6,,,,,,,,,8,,,B4,,,7,,,B3,,,6,,,B2,,,,,,,,,E6,,E5,,E4,,E3,,E2,,,,,,,,4,,,5,,,3,,,6,,,,,,,,,,,,,,,D4,E4,,E8,D8,,B6,E6,,,E2,D2,,,,,2b,,3,,4,,5,,6,,7b,,,,5b,,6,,7,,8,,,,3,,,,6,,,,4,,,,5,,1/8,,7b/2b,,,,,,,,7b,,2,,6,,1b,,5,,2,3,6b/4b,,,,,,,,,,,,2h,,,,,3,4,5bw1b[1:1],,,,,,,,,
{8},,,,,,,,,3/6h[12:1],,2h[12:1]/7,,1/8h[12:1],,5h[12:1]/7,,2/4h[12:1],,1h[12:1]/4,,5/8h[12:1],,5h[12:1]/7,4,3,2,1,8,7,6,5,
{16}4bh,5,6,7,8,1,2,3,4b,5,6,7,8,1,2,3,4bh,5,6,7,8,1,2,3,4b,5,6,7,8,1,2,3,4bh,
{32}5,6,7,8,1,2,3/7bx,4,5,6,7,8,1,2,3/7bx,4,5,6,7,8,1,2,3/7bx,4,5,6,7,8,1,2,3/7bx,4,5,6,7,8,1,2,3/7bx,4,5,6,7,8,1,2,3/7bx,,E4,,E5,,E6,,E7,,E8,,E1,,E2,,
{8}E3,3x-5[8:1],5x-1[8:1],,,,7,3,2-5[8:1],5-1[8:1],1-6[8:1],,,
{16},,,,,,
{8}2>5[4:1]/1<6[4:1],,,,{16},,,,E7f,,,,6x,5x,6x,5x,6x,5x,6x,5x,6x>1[4:1],5x,6xb,,,,,,
{8}1x-5[8:1],5>2[8:1],2-6[8:1],6<8[8:1],,,{16}B8,C,B4,,{32}A4,D4,A3,D3,A2,D2,,,{16}7x,6x/3x,5h[16:1]/2x,1h[8:1],{16},,7b,6,5,1,2,3,,8,7,6,5,4,3,2,1/5b,6,7,8,1,2,3,4,5b/1bx,2b,3,4,5,{16}6,7,8,1b<6[8:1],,,,,,,,5x,4,3,2,1,,E3,B3,B4,E5,,E1,B8,B7,E7,,A2,D3,A3,D4,,A8,D8,A7,D7/3b,A6,,,3,4
,5,6,7h,8,1,2,3,4,5,6,7,8,1,2,3,4,5,6,7,8,1,2,3,4,5,6,7,8,1,2,3,4,5b,6,7,8,,,B2,,B6,,B3,,B7,,Cf,,,,5,,6/2,,6,,5,,6/2,,6,,4,,6/2,,
{24}E8,B8,B1,E2,E6,B5,B4,E4,,,,,,7x,8x,1,2,3,6,7,8,1,2,3,6b,7,8,1,2,3,6b,7,8,1,2,3,6b,7,8,1,2,3,6b,7,8,1,2,3,
{8}Ch[8:1],,7,6,7,5,7-3-7[2:1],3,,,A3f,,A7f,,5,4,5,3,5,3b,5,4,5-1-5
[2:1],3,,,A1f,,A5f,,8,1,5,C,5,4,5,3,8-4-8[2:1],
,8,,A4f,,A8f,,A3f,5,8,3,2,6,3,7,6,2x,1-4>1[3:1],
5-8<5[3:1],1,5,,,,,,5,6,4/2b,5,6,4>4[2:1],
,,,A8f,,A4f,,1,3,E7,4,B2,7,1,A5,6-2-6[2:1],
2b,,,A2f,,A6f,,8/1,4,
(204)E1,E2,E3,E4,E5,E6,E7,E8,
(194)E1,E2,E3,E4,E5,E6,,,
(184){12}5h[8:1]/3b,4,4b,4h[8:1],5,5,5h[8:1],4,4b,4h[8:1],5,5,{8}5b/4h[4:1],,,,B1,,B5,E7,{16}E3f/6,,2,5h[12:1],,,5,4,6,3,7,{24}8b,7x,6x,5x,,,{16},,1,2,5,4,6/3,5,4,8,6,1,3,4,6,,{32}2/8,3b/7b,{16}4b/6b,,,,1,3,2,4,2,,6,8,4,5,,,1/8,4,3,,4,3,4,3,4,,3<6[6:1]/2<7[6:1],,2b/3b,,3/2,,,,,,8/5,7,3,2,,5,,6,4,5,3,1,2/5,7,2,3,4,2b,4,3,1,8,6,1b,2b,4b,5b,,{8}1h[1:1],8,7,Cf,6,5,,6b,8,,2/7,,,,Cf/E8/E2/E4/E6,,{32}1b,8/2,7/3,6/4,5bx,,,,{8},,Cf,E3,E7,,,,{32}8b,7/1,2/6,3/5,4b,,,,
{8}E8f,E4f,E2f,E6f,{12}6,4,7,3,5,1,3,5,2,1b/5b,,,2,4,2,3,5,6,4,6,1,5,2,7,{36}3h/6h,5h/2h,1h[6:1]/4h[6:1],,,,,,,2/5,3/6,4b/7b,,,,,,,
{12}2/3,1,4,2,6,4,2,4,7,8/1,3,4,6,8,1,5,3,6,{8}B7/B6,,E5,,E3/B2,,B5,,B8,,{16}A3f,A4,A8,A1,A6,A2,A7,A3,A8,A4,,,
{8}6h[4:1]/3,7,1,4,2h[4:1],5,7,8,2/3h[2:1],,,,Cf,,,,6h[4:1]/3,7b,1b,4,2h[4:1],5,7,8,2/3h[2:1],,,,{16},B2,,,6h[8:1],,,,
{8}A1f,,5h[4:1],,4,1,3/7h[4:1],,,B7,4,5,3,8,2h[4:1],,Cf,,6,A2,7,A3,8hb[4:1],A4,Cf,,3,E7/B7/B6,2,,1,B5,2h[2:1]/3,B7,B5,B3,Cf,E7,E5,,6h[2:1]/7,,,,Cf,,,,6/5,2,6/5,3,6h[2:1]/5,4,,3,1hb[4:1],,7,,3,,5,,4h[4:1],,,6/,5/E1,4,3/A7,,6h[4:1],4,8,2b,6,8b,4,6,2,4,8,2b,6,8,4,6,2hb[4:1],,,Ch[4:1],,,,,
{4}B7/B3/B2/B6/Ch[1:4],,,,,,,,1h[1:2],,,,,,,,2h[1:2],,,,,,,,3h[1:2]/Ch[1:2],,,,,,,,
(170)4h[2:1],5,3,,2h[2:1],1,3,,{4}5hb[1:2]/E1,E2,E3,E4,E5,E6,E7,E8,
(160){8}E1,E2,E3,E4,E5,E6,E7,E8,E1/5b,E2,E3,E4,E5,E6,E7,E8,{16}E1/5b,E2,E3,E4,E5,E6,E7,E8,{32}E1,E2,E3,E4,E5,E6,E7,E8,E1,E2,E3,E4,E5,E6,E7,E8,,,,,E1,,,,,Cf,,,,,,,,,,,,,,,
{16},,,,6,2,7,3,1b,,,,5,6,5,6,3b,,,4,2,5,1,6,8,5,1,4,2,,3,2,3,,,,
{32}1b/2b,3,4,5,,,,,8b/7b,6,5,4,,,,,
{24}3,,,7,,,2,,,7,,,{16}8,4,,3,,4,,2,,8,,6,8h[6:1],,,,
{32}8/1,7,6,5,4,,,,8bh/4bh,3/7,6/2,1/5,,,,,
{8},,
{24}4,5,,4,5,,4,5,,4,5,,{16}4,3,4,5,4,5,4,5,6,7bx,,,
{8}E1,E2,E3,E4,Cf,E5,E6,E7,E8,1,2,3,4>1[8:1]*<7[8:1],,4,,
{24},,,7,6,,7,6,,7,6,,{16}8,5,1,4,2,3,2,3,2,3,2,3,2,3,1,4,1,4,1,4,C,,,,3h[4:1]/2h[4:1],,,,6h[4:1]/7h[4:1],,,,,,
3,4,5,6,7,1,8,1,8,1,8,1,2,2,2,3,3,,3hx[5:4],,,
{32}D8,E8,C,E4,D4,,,,,D3,E3,C,E7,D7,,,,,
{24},,,,,,3,4,,3,4,,3,4,,{16}3,5,3,5,3,5,4,5,4,5,4,5,4b,,
{4}5-8[8:1]/4-1[8:1],A5/A4,{8}6-2[8:1]/3-7[8:1],,,,{4},C/B7/B8/B1/B2/B3/B4/B5/B6,2/7,3/4,
{8},1-3[12:1],1-7[12:1],1-5[12:1],,,A5f,,6-3[8:1]/7-2[8:1],,2<7<2[3:1]/3>6>3[3:1],,,,,,
{32}2/8x,3,4,5,,,,1x/7,6,5,4,,,,,,
{16}4x,4x,4x,4x,4b,4x,4x,4x,4b,4x,4x,4x,4b,4x,4b>2[12:1],4b<6[12:1],4b-8b[12:1],,,,,,,,
{32}2x/8,3,4,5,,,,1x/7x,6,5,4,,,,,,
{16}1,B6,1,E6,1,,1,Cf,1,,1,B7,1,B6,1,,1,,,,7,8,1,2,3,4,5,6,7,8,1,2,3,4,5,6,7,8,1,2,3hb[12:6],,,,,,,,,,5,,5,,5,,
(170){16}5b,5,5b,5,5b,5,5b,5,5b,5,5b,5,5b,5,5b,5,{32}5x/8x,1,2,3,,,,,6x/1,2,3,4,,,,,2x/8,7,6,5,,,,,1x/7,6,5,4,1hb[16:1],,,,
(184){32}1x,2x,8x,7x,2,3,7,6,3,4,6,5,3,4,5,4,5,4,5,4,5,4,5,4,3,2,1,8,7,6,5,,
4b,3,2,1,8,,,,4b,5,6,7,8,,,,4b,3,2,1,8,,,,4b,5,6,7,8,,,,
(204){32}4,4,5,5,4,4,5,5,3,3,6,6,2,2,7,7,1,1,8,8,1,8,1x,8x,1b,8b,1x,8x,1b,8b,,,
{8}2/6,2/7,3/7,4/7,5/7,6/7,1/8,2/3,
(222)5/6,8/7,4x-2b[0##0.1],5x-7b[0##0.1],2x-4b[0##0.1],7x-5b[0##0.1],5x>5>5b[0##1.3],,,,,,,,,,Ch[1:7],,,,,,,,,,,,,,,,,,,,,,,,,,,,,,,,1b,,,,,,,,,,,,,,,,8b,,,,,,,,,,,,
{16}E1,E2,E3,E4,E5,E6,,,
{8}6/5,5/4,4/3,,,,1/8,7/2,3/6,,,,,,,,4/5,3-6[0.2##0.1]/6-3[0.2##0.1],,,,,8/7,6-1[0.2##0.1]/1-6[0.2##0.1],,,,,
{16}2,3,4h/5h,6h,7h,,,,
{16}5,6,5,6,5,6,5,6,5b,6,5,6,2b,4,2,4,2>5[0##0.2]*<7[0##0.2],,,,,,,,,,,,
5b,6,7,8,1,2,3,4,5,6,7,8h[12:1],,,,,4,3,2,1,8,7,6,5,4h[24:1],,,,
{8}2-5>2[0.5##0.5]*-7>2[0.5##0.5],,{16},,,2,,,,,,,,,{8}B7/B6/E7/3,,A7/D8/E8/A8/4,,5,5,6,7,8,1,2,3,4,5,6,7,8,1,2,3,
{16}4,5,6,7,8,1,2,3,4,5,6,7,8,,,,
{32}1h[8:1],6x,5x,4x,3b,,,,8h[8:1],3x,4x,5x,6b,,,,1h[8:1],6,5,4,3b,,,,8h[8:1],3,4,5,6b,,,,
1h[8:1],6,5,4,3b,,,,8h[8:1],3,4,5,6b,,,,2h[8:1],7x,6x,5x,4b,,,,7h[8:1],2x,3x,4x,5b,,,,
1hb[18:1],6,5,4,3b/1hx[12:1],,,,8hx[18:1],3,4,5,6b/8hx[12:1],,,,2hx[18:1],7,6,5,4b/2hx[12:1],,,,7hx[18:1],2,3,4,5b/7hx[12:1],,,,1hx[18:1],6,5,4,3/1hx[12:1],,,,8hx[18:1],3,4,5,6b/8hx[12:1],,,,2hx[18:1],7,6,5,4b/2hx[12:1],,,,7hx[18:1],2,3,4,5,6,7,8b,
{8}1hb[4:6],,,,,,,,5b,5b,6b-3[0.8##0.05],6b,7b-2[0.55##0.05],7b,,,A2f/A3f,,2/3,,7/6,,1/8,,
{32}4h[8:1],5x,6x,7b,,,,,5h[8:1],4x,3x,2b,,,,8hb[8:1],2b,3b,4b,5b,,,,,8hb[8:1],2b,3b,4b,5b,,,,8hb[6:1],,,,,,,,
{16}1,2,1,3b,1,2,1,3b,1,2,1,3b,
{32}1hb[18:1],7b,6b,5b,4b,,,,1hb[18:1],7b,6b,5b,4b,,,,8hb[18:1],2b,3b,4b,5b,,,,8hb[18:1],2b,3b,4b,5b,,,,
{16}7-4[0.3##0.1]/8-3[0.3##0.1],,1/6,,7b/8b,,,,1-6[0.3##0.1]/2-5[0.3##0.1],,8/3,,1b/2b,,,,
6b,5,6,5,6b,5,6,5,6b,5,6,5,6b,5,6,5,6b,6,6,6,6x,6,6,6,6x,6,6,6,6x,6,6,6,
{32}6hb[8:1],7,8,1,2b,,,,3hb[12:1],1,8,7,6b,,,,2hb[12:1],7,6,5,4b,,,,1hb[12:1],6b,5b,4b,,,,,
{8}5/6,7-4>6[0.4##0.3]/4-7>6[0.4##0.3],3h[5:1]/8h[5:1],,,,,,
{32}1hx[18:1],6,5,4,3b/1hx[12:1],,,,8hx[18:1],3,4,5,6b/8hx[12:1],,,,1hx[18:1],6,5,4,3b/1hx[12:1],,,,8hx[18:1],3,4,5,6/8hx[12:1],,,,
{16}5,4,5,4,6,3,5,4,5,4,6,3,5,4,5,,
{32}6hx[6:1],8x,1x,2x,3b,,,,8hx[18:1],3,4,5,6b/8hx[12:1],,,,7hx[18:1],2,3,4,5b/7hx[12:1],,,,7hx[18:1],2,3,4,5b/7hx[12:1],,,,
{16}1,2,1,2,,5,6,5,6,,3,3,6,6,,,8h[12:1],1,2,2,,3,3,4,4,,5h,5h,6h,6h,,,
{32}6hb[6:1],8,1,2,3,,,,
{16}7,7,4,4,5,5,8,8,4,4,,,
{32}1hb[18:1],7bx,6bx,5bx,4bx,,,
{16}1,2,1,2,8,3,7,4,6,5,6,5,6,
{32}5h[6:1],8x,1x,2x,3x,,,5h[6:1],3x,2x,1x,8x,
{16}7,6,5,4,3,2,1,8,7,
{32},6hb[6:1],8,1,2,3,,,,7hb[6:1],1,2,3,4b,,,,8hb[6:1],2,3,4,5b,,,,7hb[6:1],1,2,3,4b,,,,
{16}5,3,5,3,5,3,5,3,5h[3:1],2,1,8,7,6,,,
{32}8h/4h,3/7,6/2,1/5,,,,,2/6,3/7,4/8,5b,,,,,2h[8:1]/1,,,,,,,,5h[8:1]/6x,,,,,,,,
{16}4,5,6,7,1,2,3,4,6,7,8,1,3,4,5,,7,6,5,4,3,2,1h/8b,7,6,5/4,3,2,1h[10:1],,1h[18:1],,,8b,7,6,8b,,4,4,,3,3,,2,2,,,
{32}1/8,7,6,5/4,3,,,,,,,,,,6h[10:1]/2h[10:1],,,,6h[20:1]/2h[20:1],,,,7h[10:1]/3h[10:1],,,,7h[20:1]/3h[20:1],,,,
{16}3,4,3,2,3,4,3,2,3,4,3,2,3,4,3,2,{8}1,8,7,6,5,E5,E4,E3,
5h[8:1],1h[8:1],5h[8:1],1h[8:1],5h[8:1],1h[8:1],5h[8:1],1h[8:1],5h[8:1],4h[8:1],3h[8:1],2h[8:1],1h[8:1],5h[8:1],6h[8:1],7h[12:1],
{16}1,1,2,2,,1,1,3,3b,,1,1,4,4,,6,6,,5,5,,1,2,3,1,5,6,1,2,3,4,5,
{32}6,7,8,1,2,3,4,5,6,7,8,1,2,3,4,5,6,7,8,1,2,3,4,5,6,7,8,1,2,3,4,5,6,7,8,1,2,3,4,8,7,6,5,4,3,2,1,8,7,6,5,4,3,2,1,8,7,6,5,8b,7,6,5,4,3,2,1,,,,,,
{16}6,5,6,7,6,5,6,7,6,5,7,6,
{32}7,8,1,2,3,4,,,
{16}3,4,3,2,3,4,3,2,3,4,3,2,
{32}1,8,7,6,5,4h[5:1],,,
{16},,,,8,8,4,4,1,1,7,7,7,6,5/4,3,2,,7,6,5/4,3,2,1,,,4,4,3h[16:1],,6h[10:1],,7h[16:1],,1h[10:1],,5,6,4,3,,5,6,4,3,7,3,7,3,7,3,7,3,7,3,7,3,7,3,7,3,4/5,6,7,8/1,2,3,4,5,6,7,8/1,8hb[8:1]/1hb[8:1],,,,7/2,6/3,4,5,6,7,8,1,2h[2:1],,,,,,,,7x,6x,5x,4x,3h,4x,5x,6x,7h,6x,5x,4x,3h,4x,5x,6x,7h/2h[8:1],6x,5x,4x,3h,4x,5x,6x,7h/1b,6x,5x,4x,3h,4x,5x,6x,7h/1h[8:1],6x,5x,4x,3h,4x,5x,6x,7h/3b,6x,5x,4x,3h,4x,5x,6x,7h/2hb[10:1],6x,5x,4x,3h,4x,5x,6x,7h,6x,5x,4x,3h,4x,5x,6x,7h
3,4,3,4,3,4,3,4,3,4,3,4,3,4,3,4,3b,3,3b,3,3b,3,3b,3,3b,3,3x,3,3x,3,3x,3,
{32}3x,2x,1x,8x,7x,6x,3x,2x,1x,8x,7x,6x,3x,2x,1x,8x,7x,6x,3x,2x,1x,8x,7x,6x,3x,2x,1x,8x,7x,6x,,,3x,4x,5x,6x,7x,3x,4x,5x,6x,7x,3x,4x,5x,6x,7x,3x,4x,5x,6x,7x,3x,4x,5x,6x,7x,3x,4x,5x,6x,7x,8h[4:1],,,,,,,,,,
{8}3,4,5,6,2,3,
{32}4/1x,,1x/5,,
{8}6b,
{32}4,,5,,
{8}6b,
{32}7/8x,,8x/6,,
{8}5b,
{32}7,,6,,
{8}5b,8,5,6,3,4,6,7,3,
{32}8,,8,,
{8}2,3,1,8,6,7,3,
(227){32}2,,2,,
{16}8,5,4,5,4,5,4,5,4,4b,4,5,5,5,8,8,8,1,1,1,2,2,2,3,3,3,4,5,6,5,6,5,6,5,6b,5,4,5,4,5,4,5,4,8,1b,8,1,8,1,8,1,8,2,3,2,3,2,23,,,,,
(232){32},1,2,3,4b,,,,,8,7,6,5,,,,,1,2,3,4,,,,,8,7,6,5,,,,,1,2,3,4,,,,,1,2,3,4,,,,,8,7,6,5b,,,,,2,3,4,5b,,,,
(237),6,5,4,3b,,,,,3,4,5,6b,,,,,7,6,5,4b,,,,,2,3,4,5b,,,,,6,5,4,3,,,,,3,4,5,6b,,,,,7,6,5,4b,,,,,2,3,4,,,,,1h[8:1],6x,5x,4x,3b,,,,8h[8:1],3x,4x,5x,6b,,,,1h[8:1],6x,5x,4x,3b,,,,8h[8:1],3x,4x,5x,6,,,,1hb[8:1],6x,5x,4x,3b,,,,8h[8:1],3x,4x,5x,6b,,,,1hb[8:1],6x,5x,4x,3,,,,8hb[8:1],3x,4x,5x,6b,,,,
(241)1hb[8:1],6,5,4,3b,,,,8hb[8:1],3,4,5,6b,,,,1hb[8:1],6,5,4,3b,,,,8hb[12:1],3,4,5,6b,7,8,1,2,3,4,5,6,7,8,1,2,3,4,5,6,7,8,1,2,3,4,5,6,7,8,1,,,,,,,,,
(250){16}4-7b[0.2##0.2],3-8b[0.15##0.2],5,2,,,,,,,2,5,,,,,4-7[0.2##0.2],3-8[0.15##0.2],,,,,,,,,2,5,,,,,4-7[0.2##0.2],3-8[0.15##0.2],,,,,,,,,2,5,,,,,
(250){8}8/7,,1/6,,2/5,,3/4,,
{32}3b/4b,E3/E5,E2/E6,E1/E7,,,,,,,,,1bx,8x/2x,7x/3x,6x/4x,5hb[1:12],,,,,,,,,,,,,,,,
{4},,,
{8},E2,,E4,,E6,
{4},,,,,,A2,,A4,,A6,,,,,,,,,,,,,,,,,,
&inote_6=(154)
{4},,,,,{16},{32}5h[30:20]/2,3,4h[3:1],,,,,,,,,,,,,,{16},,,,,2,,3,,6,,5,,7hx[4:3],,1h[4:1],,,,,,,,,,Cf,,,,,,,,,5h[8:1]/1,,,,3/2h[1:1],,/6,,3,,5,,4,,6,,5,,8,,{32},,3,4,{16}5h[9:8],,,,,2,,,,,,8,,{32},,,,{16},5hx[1:1],,,,,,,,,,,E2,,,,E1,,E8,,E7,,E6,,E5,,E4,,E3,,E2,,E1,E8,E7,E6,E5,E4,E3,,E2,,,,E1,,,,{32}1b,2/8,7/3,6/4,5hb[3:1],,,,
(164){16},,,,Ch[3:1],,,,B7/B6,,,,,,5-1[6:1]/3,,,,,,,,2b>7[4:1],,,,,,,,,,
(174)5h[9:1]/4,4hb[9:1],,,6-3-8[3:1],,3,,6/E6,B5,B4,,,,,,1,2,3,4b,2,3,4,5b,7,6,5,4,
(184)3hb[4:1],,,,2h[4:1],,,,1<1[4:1],,1h[8:1],,,,,,
(194),,,,2,,7,,3,,6,,4,,5,,
(204)D5,A4,D4,A3,{8}D3f/6b,,5b/D2f,,4b/A8f,,
(222)4h[6:1]/5h[16:1],,4h[16:1]/5h[6:1],,4h[6:1]/5h[16:1],,4h[16:1]/5h[6:1],,4h[12:1]/5h[16:1],4hb[24:64]/5hb[17:64],,,,,,,,,,,,,,,,,,,,,,,,,,,,,,,2h[1:1],,,,,,,,,,,,Cf/E3/E7,,,,6h[1:1],,,,,,,,,,,,{16}E2,E3,E4,E5,E6,E7,E8,E1,{32},2,3b,,7,6b,,3,4hb[10:1],,6,5hb[4:1],,,,,,,,,,,,,8,7b,,3,4b,,7,6b,,1,2b,,3,4b,,7,6b,,5,,,,,,D3,A3,D4,A4,D5,A5,D6,A6,D7,A7,D8,A8,,,,,3b,4,,B8,B7,,2b,3,,B7,B6,,1,2,,B6,B5,,,,,,,,8b,7,,B4,B3,,7b,6,,B3,B2,,6b,5,,B2,B1,,,,,,,,E6,,E5,,E4,,E3,,E2,,,,,,,,4,B4f,,5,B5f,,3,B3f,,6,B6f,,,,,,,,,,,,,,D4,E4,,E8,D8,,B6,E6,,,E2,D2,,,,,2b,,3,,4,,5,,6,,7b,,,,5b,,6,,7,,8,,,,2,,6,,3,,7,,4,,8,,5,,1,8,7b,,,,,,,,7b,,2,,6,,1b,,5,,2,3,6b/4b,,,,,,,,,,,,2h,,,,,3,4,5w1[1:1],6bx,,,,,,,,{8},,,,,,,,,3/6h[12:1],,2h[12:1]/7,,1/8h[12:1],,5h[12:1]/7,,2/4h[12:1],,1h[12:1]/4,,5/8h[12:1],,5h[12:1]/7,4,3,2,1,8,7,6,5,{16}4bh,5,6,7,8,1,2,3,4b,5,6,7,8,1,2,3,4bh,3,2,1,8,7,6,5,4b,3,2,1,8,7,6,5,4bh,{32}5,6,7,8,1,2,3/7bh,4,5,6,7,8,1,2,3/7bh,4,5,6,7,8,1,2,3/7bh,4,5,6,7,8,1,2,3/7bh,4,5,6,7,8,1,2,3/7bh,4,5,6,7,8,1,2,3/7hb[2:1],,E4,,E5,,E6,,E7,,E8,,E1,,E2,,
{8}E3,3-5[8:1],5-1[8:1],,,,7,3,2-5[8:1],5-1[8:1],1-6[8:1],,,{16}E7,E8,E1,E2,,,{8}2>5[4:1],,E6,E7,{16}E6,B3,E8,B2,B1,Cf,,,6x,5x,6x,5x,6x,5x,6x,5x,6x>1[4:1],5x,6xb,,E5,E4,E3,E2f,
{8}1x-5[8:1],5>2[8:1],2-6[8:1],6<8[8:1],,,{16}B8,C,B4,,{32}A4/7,D4,A3/6,D3,A2/5,D2,,,{16}7,6/3,5h[16:1]/2,1h[8:1],{16},,7b,6,5,1,2,3,,8,7,6,5,4,3,2,1/5b,6,7,8,1,2,3,4,5b/1bx,2b,3,4,5,{16}6,7,8,1b<6[8:1],2b,3b,4b,,,,,,5b/4b,6b/3b,7b/2b,,,E3,B3,B4,E5,,E1,B8,B7,E7,,A2,D3,A3,D4,,A8,D8,A7,D7/3b,A6,,,3,4
,5,6,2b/7h,6,5,4,3,2,1,8,7,6,5,4,3,2,1,8/4b,3,2,1,8,7,6,5,4,3,2,1,8,7,6,5b/Cf,4,3,2,1,,B2,,B6,,B3,,B7,,Cf,,6,,5,,6/2,,6,,5,,6/2,,6,,4,,6/2,,{24}6,7,8,1,2,3,6,7,8,1,2,3,6,7,8,1,2,3,6,7,8,1,2,3,6b,7,8,1,2,3,6b,7,8,1,2,3,6b,7,8,1,2,3,6b,7,8,1,2,3,
{8}Ch[8:1],,7,6,7,5,7<3<7[2:1],3,,,A3f,,A7f,,5,4,5,3,5,3b,5,4,5>5
[2:1],3,,,A1f,,A5f,,8,1,5,C,5,4,5,3,8-4-8[2:1],
,8,,A4f,,A8f,,A3f,5,8,3,1,6,3,7,6,2x,1-4[8:1],
5-8[8:1],4>1[8:1],8<5[8:1],,,,,,5,6,4/2b,5,6,4>4[2:1],
,,,A8f,,A4f,,1,3,E7,4,B2,7,1,A5,6-2-6[2:1],
2b,,,A2f,,A6f,,8/1,4,
(204)E1,E2,E3,E4,E5,E6,E7,E8,
(194)E1,E2,E3,E4,E5,E6,,,
(184){12}5h[8:1]/3b,4,4b,4h[8:1],5,5,5h[8:1],4,4b,4h[8:1],5,5,{8}5b/4h[4:1],,,,B1,,B5,E7,{16}E3f/6,,2,5h[12:1],,,3,4,2,3,1,{24}8b,7,6,5/A2f/D3/D2,A3,D4,{16},,1,2,5,4,6/3,5,4,8,6,1,3,4,6,,{32}2/8,3b/7b,{16}4b/6b,,,,1,3,2,4,2,,6,8,4,5,,,1/8,4,3,,4,3,4,3,4,,3<6[6:1]/2<7[6:1],,2b/3b,,3/2,,,D7f,,,8/5,7,3,2,,5,,6,4,5,3,1,2/5,7,2,3,4,2b,4,3,1,8,6,1b,2b,4b,5b,,{8}1h[1:1],8,7,Cf,6,5,Ch[24:1],6b,8,,2/7,,,,Cf/E8/E2/E4/E6,,{32}1b,8/2,7/3,6/4,5bx,,,,{8},,Cf,E3,E7,,,,{32}8b,7/1,2/6,3/5,4b,,,,
{8}E8f,E4f,E2f,E6f,{12}6,4,7,3,5,1,3,5,2,1b/5b,,,2,4,2,3,5,6,4,6,1,5,2,7,{36}3h/6h,5h/2h,1h[6:1]/4h[6:1],,,,,,,2/5,3/6,4b/7b,,,,,,,
{12}2/3,1,4,2,6,4,2,4,7,8/1,3,4,6,8,1,5,3,6,{8}B7/B6,,E5,,E3/B2,,B5,,B8,,{16}A3f,A4,A8,A1,A6,A2,A7,A3,A8,A4,,,
{8}6h[4:1]/3,7,1,4,2h[4:1],5,7,8,2/3h[2:1],,,,Cf,,,,6h[4:1]/3,7b,1b,4,2h[4:1],5,7,8,2/3h[2:1],,,,{16},B2,,,6h[8:1],,,,
{8}A1f,,5h[4:1],,4,1,3/7h[4:1],,,B7,4,5,3,8,2h[4:1],,Cf,,6,A2,7,A3,8hb[4:1],A4,Cf,,3,E7/B7/B6,2,,1,B5,2h[2:1]/3,B7,B5,B3,Cf,E7,E5,,6h[2:1]/7,,,,Cf,,,,6/5,2,6/5,3,6h[2:1]/5,4,,3,1hb[4:1],,7,,3,,5,,4h[4:1],,,6/,5/E1,4,3/A7,,6h[4:1],4,8,2b,6,8b,4,6,2,4,8,2b,6,8,4,6,2hb[4:1],,,Ch[4:1],,,,,
{4}B7/B3/B2/B6/Ch[1:4],,,,,,,,1hb[1:2],,,,,,,,2h[1:2],,,,,,,,3h[1:2]/Ch[1:2],,,,,,,,
(170)4h[2:1],5,3,,2h[2:1],1,3,,{4}5hb[1:2]/E1,E2,E3,E4,E5,E6,E7,E8,
(160){8}E1,E2,E3,E4,E5,E6,E7,E8,E1/5b,E2,E3,E4,E5,E6,E7,E8,{16}E1/7b,E2,E3,E4,E5,E6,E7,E8,{32}E1,E2,E3,E4,E5,E6,E7,E8,E1,E2,E3,E4,E5,E6,E7,E8,,,,,,,,,,Cf,,,,,,,,,,,,,,,
{16},,,,6,2,7,3,1b,,,,5,6,5,6,3b,,,4,2,5,1,6,8,5,1,4,2,,3,2,3,,,,
{32}1b/2b,3,4,5,,,,,8b/7b,6,5,4,,,,,
{24}3,4,,7,6,,2,3,,7,6,,{16}8,4,1,3,5,4,6,2,4,8,2,6,8h[6:1],,,,
{32}8/1,7,6,5,4,,,,8bh/4bh,3/7,6/2,1/5,,,,,
{8},,
{24}7,4,,7,6,,7,3,,7,6,,{16}8,4,1,3,5,4,6,2,4,8b,,,
{8}E1,E2,E3,E4,Cf,E5,E6,E7,E8,1,2,3,4>1[8:1]*<7[8:1],,4,,
{24},,,7,6,,7,3,,7,6,,{16}8,4,1,3,5,4,6,2,4,5,6,7,4,6,7,1,3,4,5,6,8/1,,,,3h[4:1]/2h[4:1],,,,6h[4:1]/7h[4:1],,,,,,
2,4,5,6,7,1,3,7,4,3,5,1,3,6,4,5,6,,1hx[5:4],,,
{32}D8,E8,C,E4,D4,,,,,D3,E3,C,E7,D7,,,,,
{24},,,,,,7,6,,7,3,,7,6,,{16}8,4,1,3,5,4,6,2,4,3,6,2,4,,
{4}5-8[8:1]/4-1[8:1],A5/A4,{8}6-2[8:1]/3-7[8:1],,,,{4}1/8,C/B7/B8/B1/B2/B3/B4/B5/B6,2/7,3/4,
{8},1-3[12:1],1-7[12:1],1-5[12:1],,,A5f,,6-3[8:1]/7-2[8:1],,2<7<2[3:1]/3>6>3[3:1],,,,,,
{32}2b/8b,3,4,5,,,,1b/7b,6,5,4,,,,,,
{16}4b,4,4,4,4b,4,4,4,4b,4,4,4,4b,4,4b>2[12:1],4b<6[12:1],4b-8b[12:1],,,,,,,,
{32}2b/8b,3,4,5,,,,1b/7b,6,5,4,,,,,,
{16}1,A4,1,A5,1,,1,Cf,1,,1,B7,1,B6,1,,1,,,,7,8,1,2,3,4,5,6,7,8,1,2,3,4,5,6,7,8,1,2,3hb[12:6],,,,,,,,,,5,,5,,5,,
(170){16}5b,5,5b,5,5b,5,5b,5,5b,5,5b,5,5b,5,5b,5,{32}5b/8b,1,2,3,,,,,6b/1b,2,3,4,,,,,2b/8b,7,6,5,,,,,1b/7b,6,5,4,1hb[16:1],,,,
(184){32}1,2,8,7,2,3,7,6,3,4,6,5,3,4,5,4,5,4,5,4,5,4,5/4,4/3,2/3,1/3,8,7,6,5,,,
4b,3,2,1,8,,,,4b,5,6,7,8,,,,4b,3,2,1,8,,,,4b,5,6,7,8,,,,
(204){32}4,4,5,5,4,4,5,5,3,3,6,6,2,2,7,7,1,1,8,8,1,8,1x,8x,1b,8b,1x,8x,1b,8b,,,
{8}2x-4b[0##0.1],7x-5b[0##0.1],4x-2b[0##0.1],5x-7b[0##0.1],2x-4b[0##0.1],7x-5b[0##0.1],4x-2b[0##0.1],5x-7b[0##0.1],
(222)2x-4b[0##0.1],7x-5b[0##0.1],4x-2b[0##0.1],5x-7b[0##0.1],2x-4b[0##0.1],7x-5b[0##0.1],5x>5>5b[0##1.3],,,,,,,,,,Ch[1:7],,,,,,,,,,,,,,,,,,,,,,,,,,,,,,,,1b,,,,,,,,,,,,,,,,8b,,,,,,,,,,,,
{16}E1,E2,E3,E4,E5,E6,,,
{8}6h[10:1]/5h[10:1],5h[10:1]/4h[10:1],4h[6:1]/3h[6:1],,,,1h[10:1]/8h[10:1],7h[10:1]/2h[10:1],3h[6:1]/6h[6:1],,,,,,,,4/5,3-6[0.2##0.1]/6-3[0.2##0.1],4/5,,,,8/7,6-1[0.2##0.1]/1-6[0.2##0.1],2/5,,,,
{16}2,3,4h/5h,6h,7h,,,,
{16}5,6,5,6,5/7b,6,5,6,7b/5,6,5,6,2b,4,2,4,2>5[0##0.2]*<7[0##0.2],,,,,,,,,,,,
5b,6,7,8,1/4h[24:1],2,3/8h[24:1],4,5/2h[24:1],6,7/4h[12:1],8h[12:1],,,,,4/5h[24:1],3,2/7h[24:1],1,8/3h[24:1],7,6,5/2h[24:1],4h[24:1],,,,
{8}2-5>2[0.5##0.5]*-7>2[0.5##0.5],,{16},2,,2,,,,,,,,,{8}B7/B6/E7/3,,A7/D8/E8/A8/4,,5,5,6,7,8,1,2,3,4,5,6,7,8,1,2,3,
{16}4,5,6,7,8,1,2,3,4,5,6,7,8,,,,
{32}1hb[8:1],6x,5x,4x,3b,,,,8hb[8:1],3x,4x,5x,6b,,,,1hb[8:1],6,5,4,3b,,,,8hb[8:1],3,4,5,6b,,,,
1hb[8:1],6,5,4,3b,,,,8hb[8:1],3,4,5,6b,,,,2hb[8:1],7x,6x,5x,4b,,,,7hb[8:1],2x,3x,4x,5b,,,,
1hb[18:1],6b,5b,4b,3b/1hb[12:1],,,,8hb[18:1],3b,4b,5b,6b/8hb[12:1],,,,2hb[18:1],7b,6b,5b,4b/2hb[12:1],,,,7hb[18:1],2b,3b,4b,5b/7hb[12:1],,,,1hb[18:1],6b,5b,4b,3b/1hb[12:1],,,,8hb[18:1],3b,4b,5b,6b/8hb[12:1],,,,2hb[18:1],7b,6b,5b,4b/2hb[12:1],,,,7hb[18:1],2b,3b,4b,5b,6b,7b,8b,
{8}1hb[4:6],,,,,,,,5b,5b,6b-3[0.8##0.05],6b,7b-2[0.55##0.05],7b,,,A2f/A3f,,2/3,,7/6,,1/8,,
{32}4hb[8:1],5,6,7b,,,,,5hb[8:1],4,3,2b,,,,8hb[8:1],2b,3b,4b,5b,,,,,8hb[8:1],2b,3b,4b,5b,,,,8hb[6:1],,,,,,,,
{16}1,2,1,3b,1,2,1,3b,1,2,1,3b,
{32}1hb[18:1],7b,6b,5b,4b,,,,1hb[18:1],7b,6b,5b,4b,,,,8hb[18:1],2b,3b,4b,5b,,,,8hb[18:1],2b,3b,4b,5b,,,,
{16}7-4[0.3##0.1]/8-3[0.3##0.1],,1/6,,7b/8b,,,,1-6[0.3##0.1]/2-5[0.3##0.1],,8/3,,1b/2b,,,,
6b,5,6,5,6b,5,6,5,6b,5,6,5,6b,5,6,5,6b,6,6,6,6x,6,6,6,6x,6,6,6,6x,6,6,6,
{32}6hb[8:1],7,8,1,2b,,,,3hb[12:1],1,8,7,6b,,,,2hb[12:1],7,6,5,4b,,,,1hb[12:1],6b,5b,4b,,,,,
{8}5/6,7-4>6[0.4##0.3]/4-7>6[0.4##0.3],3h[5:1]/8h[5:1],,,,,,
{32}1hb[18:1],6b,5b,4b,3b/1hb[12:1],,,,8hb[18:1],3b,4b,5b,6b/8hb[12:1],,,,1hb[18:1],6b,5b,4b,3b/1hb[12:1],,,,8hb[18:1],3b,4b,5b,6b/8hb[12:1],,,,
{16}5,4,5,4,6,3,5,4,5,4,6,3,5,4,5,,
{32}6hb[6:1],8b,1b,2b,3b,,,,8hb[18:1],3b,4b,5b,6b/8hb[12:1],,,,7hb[18:1],2b,3b,4b,5b/7hb[12:1],,,,7hb[18:1],2b,3b,4b,5b/7hb[12:1],,,,
{16}1,2,1,2,,5,6,5,6,,3,3,6,6,,,8h[12:1],1,2,2,,3,3,4,4,,5h,5h,6h,6h,,,
{32}6hb[6:1],8b,1b,2b,3b,,,,
{16}7,7,4,4,5,5,8,8,4,4,,,
{32}1hb[18:1],7b,6b,5b,4b,,,
{16}1,2,1,2,8,3,7,4,6,5,6,5,6,
{32}5h[6:1],8x,1x,2x,3x,,,5h[6:1],3x,2x,1x,8x,
{16}7,6,5,4,3,2,1,8,7,
{32},6hb[6:1],8b,1b,2b,3b,,,,7hb[6:1],1,2,3,4b,,,,8hb[6:1],2b,3b,4b,5b,,,,7hb[6:1],1,2,3,4b,,,,
{16}5,3,5,3,5,3,5,3,5h[3:1],2,1,8,7,6,,,
{32}8h/4h,3/7,6/2,1/5,,,,,2/6,3/7,4/8,5b,,,,,2h[8:1]/1-6[0##0.1],,,,,,,,5h[8:1]/6x-1b[0##0.1],,,,,,,,
{16}4,5,6,7,1,2,3,4,6,7,8,1,3,4,5,,7,6,5,4,3,2,1h/8b,7,6,5/4,3,2,1h[10:1],,1h[18:1],,,8b,7,6,8b,,4,4,,3,3,,2,2,,,
{32}1/8,7,6,5,4,3,2,1,,,,,,,,,6h[10:1]/2h[10:1],,,,6h[20:1]/2h[20:1],,,,7h[10:1]/3h[10:1],,,,7h[20:1]/3h[20:1],,,,
{16}3,4,3,2,3,4,3,2,3,4,3,2,3,4,3,2,{8}1,8,7,6,5,E5,E4,E3,
5h[8:1],1h[8:1],5h[8:1],1h[8:1],5h[8:1],1h[8:1],5h[8:1],1h[8:1],5h[8:1],4h[8:1],3h[8:1],2h[8:1],1h[8:1],5h[8:1],6h[8:1],7h[12:1],
{16}1,1,2,2,,1,1,3,3b,,1,1,4,4,,6,6,,5,5,,1,2,3,1,5,6,1,2,3,4,5,
{32}6,7,8,1,2,3,4,5,6,7,8,1,2,3,4,5,6,7,8,1,2,3,4,5,6,7,8,1,2,3,4,5,6,7,8/1,2,3,,,8,7,6,,,1,2,3,,,8,7,6,,,1,2,3,,,8,7,6,5/4,3,2,1h[3:1],,,,,,,
{16}6,5,6,7,6,5,6,7,6,5,7,6,
{32}7,8,1,2,3,4,,,
{16}3,4,3,2,3,4,3,2,3,4,3,2,
{32}1,8,7,6,5,4h[5:1],,,
{16},,,,8,8,4,4,1,1,7,7,7,6,5/4,3,2,,7,6,5/4,3,2,1,,,4,4,3h[16:1],,6h[10:1],,7h[16:1],,1h[10:1],,5,6,4,3,,5,6,4,3,7,3,7,3,7,3,7,3,7,3,7,3,7,3,7,3,4/5,6,7,8/1,2,3,4,5,6,7,8/1,8hb[8:1]/1hb[8:1],,,,7/2,6/3,4,5,6,7,8,1,2h[2:1],,,,,,,,7,6,5,4,3h,4,5,6,7h,6,5,4,3h,4,5,6,7h/2h[8:1],6,5,4,3h,4,5,6,7h/1b,6,5,4,3h,4,5,6,7h/1h[8:1],6,5,4,3h,4,5,6,7h/3b,6,5,4,3h,4,5,6,7h/2hb[10:1],6,5,4,3h,4,5,6,7h,6,5,4,3h,4,5,6,7h
3,4,3,4,3,4,3,4,3,4,3,4,3,4,3,4,3b,3,3b,3,3b,3,3b,3,3b,3,3x,3,3x,3,3x,3,
{32}3,2,1,8,7,6,3,2,1,8,7,6,3,2,1,8,7,6,3,2,1,8,7,6,3,2,1,8,7,6,,,3,4,5,6,7,3,4,5,6,7,3,4,5,6,7,3,4,5,6,7,3,4,5,6,7,3,4,5,6,7,8h[4:1],,,,,,,,,,
{8}3,4,5,6,2,3,
{32}4/1x,1,1x/5,1x,
{8}6b,
{32}4,,5,,
{8}6b,
{32}7/8x,8,8x/6,8x,
{8}5b,
{32}7,,6,,
{8}5b,8,5,6,3,4,6,7,3,
{32}8,8,8,8,
{8}2,3,1,8,6,7,3,
(227){32}2,2,2,2,
{16}8,5,4,1,6,2,5,4,3,4b,7,5,4,6,7,2,3,4,8,6,1,5,3,4,2,7,4,2,3,4,2,1,4,3,4b,7,5,4,6,7,2,3,4,8,4b,3,4,7,5,4,6,7,2,3,4,8,7/1,2/6,,,,,
(232){32}1hb[18:1],6b,5b,4b,3b/1hb[12:1],,,,8hb[18:1],3b,4b,5b,6b/8hb[12:1],,,,2hb[18:1],7b,6b,5b,4b/2hb[12:1],,,,7hb[18:1],2b,3b,4b,5b/7hb[12:1],,,,1hb[18:1],6b,5b,4b,3b/1hb[12:1],,,,8hb[18:1],3b,4b,5b,6b/8hb[12:1],,,,2hb[18:1],7b,6b,5b,4b/2hb[12:1],,,,7hb[18:1],2b,3b,4b,5b,,,,
(237)1hb[18:1],6b,5b,4b,3b/1hb[12:1],,,,8hb[18:1],3b,4b,5b,6b/8hb[12:1],,,,2hb[18:1],7b,6b,5b,4b/2hb[12:1],,,,7hb[18:1],2b,3b,4b,5b/7hb[12:1],,,,1hb[18:1],6b,5b,4b,3b/1hb[12:1],,,,8hb[18:1],3b,4b,5b,6b/8hb[12:1],,,,2hb[18:1],7b,6b,5b,4b/2hb[12:1],,,,7hb[18:1],2b,3b,4b,,,,,1hb[8:1],6x,5x,4x,3b,,,,8hb[8:1],3x,4x,5x,6b,,,,1hb[8:1],6x,5x,4x,3b,,,,8hb[8:1],3x,4x,5x,6b,,,,1hb[8:1],6x,5x,4x,3b,,,,8hb[8:1],3x,4x,5x,6b,,,,1hb[8:1],6x,5x,4x,3b,,,,8hb[8:1],3x,4x,5x,6b,,,,
(241)1hb[8:1],6,5,4,3b,,,,8hb[8:1],3,4,5,6b,,,,1hb[8:1],6,5,4,3b,,,,8hb[8:1],3,4,5,6b,7,8,1,2,3,4,5,6,7,8,1,2,3,4,5,6,7,8,1,2,3,4,5,6,7,8,1,2h[6:1]/7h[6:1],,,,,,,,
(250){16}4-7b[0.2##0.2],3-8b[0.15##0.2],5,2,,,,,7,8,2-5[0.1##0.1],5-2[0##0.1],,,,,4-7[0.2##0.2],3-8[0.15##0.2],,,,,,,7,8,2-5[0.1##0.1],5-2[0##0.1],,,,,4-7[0.2##0.2],3-8[0.15##0.2],,,,,,,,,2-5[0.1##0.1],5-2[0##0.1],,,,,
(250){8}8/7,,1/6,,2/5,,3/4,,
{32}3b/4b,E3/E5,E2/E6,E1/E7,,,,,,,,,1b,8/2,7/3,6/4,5hb[1:12],,,,,,,,,,,,,,,,
{4},,,
{8},E2,,E4,,E6,
{4},,,,,,A2,,A4,,A6,,,,,,,,,,,,,,,,,,
&inote_7=(154)
{4},,,,,{16},{32}5h[30:20]/2,3,4h[3:1],,,,,,,,,,,,,,{16},,,,,2,,3,,6,,5,,7hx[4:3],,1h[4:1],,,,,,,,,,Cf,,,,,,,,,5h[8:1]/1,,,,3/2h[1:1],,/6,,3,,5,,4,,6,,5,,8,,{32},,3,4,{16}5h[9:8],,,,,2,,,,,,8,,{32},,,,{16},5hx[1:1],,,,,,,,,,,E2,,,,E1,,E8,,E7,,E6,,E5,,E4,,E3,,E2,,E1,E8,E7,E6,E5,E4,E3,,E2,,,,E1,,,,{32}1b,2/8,7/3,6/4,5hb[3:1],,,,
(164){16},,,,Ch[3:1],,,,B7/B6,,,,,,5-1[6:1]/3,,,,,,,,2b>7[4:1],,,,,,,,,,
(174)5h[9:1]/4,4hb[9:1],,,6-3-8[3:1],,3,,6/E6,B5,B4,,,,,,1,2,3,4b,2,3,4,5b,7,6,5,4,
(184)3hb[4:1],,,,2h[4:1],,,,1<1[4:1],,1h[8:1],,,,,,
(194),,,,2,,7,,3,,6,,4,,5,,
(204)D5,A4,D4,A3,{8}D3f/6b,,5b/D2f,,4b/A8f,,
(222)4h[6:1]/5h[16:1],,4h[16:1]/5h[6:1],,4h[6:1]/5h[16:1],,4h[16:1]/5h[6:1],,4h[12:1]/5h[16:1],4hb[24:64]/5hb[17:64],,,,,,,,,,,,,,,,,,,,,,,,,,,,,,,2h[1:1],,,,,,,,,,,,Cf/E3/E7,,,,6h[1:1],,,,,,,,,,,,{16}E2,E3,E4,E5,E6,E7,E8,E1,{32},2,3b,,7,6b,,3,4hb[10:1],,6,5hb[4:1],,,,,,,,,,,,,8,7b,,3,4b,,7,6b,,1,2b,,3,4b,,7,6b,,5,,,,,,D3,A3,D4,A4,D5,A5,D6,A6,D7,A7,D8,A8,,,,,3b,4,,B8,B7,,2b,3,,B7,B6,,1,2,,B6,B5,,,,,,,,8b,7,,B4,B3,,7b,6,,B3,B2,,6b,5,,B2,B1,,,,,,,,E6,,E5,,E4,,E3,,E2,,,,,,,,4,B4f,,5,B5f,,3,B3f,,6,B6f,,,,,,,,,,,,,,D4,E4,,E8,D8,,B6,E6,,,E2,D2,,,,,2b,,3,,4,,5,,6,,7b,,,,5b,,6,,7,,8,,,,2,,6,,3,,7,,4,,8,,5,,1,8,7b,,,,,,,,7b,,2,,6,,1b,,5,,2,3,6b/4b,,,,,,,,,,,,2h,,,,,3,4,5w1[1:1],6bx,,,,,,,,{8},,,,,,,,,3/6h[12:1],,2h[12:1]/7,,1/8h[12:1],,5h[12:1]/7,,2/4h[12:1],,1h[12:1]/4,,5/8h[12:1],,5h[12:1]/7,4,3,2,1,8,7,6,5,{16}4bh,5,6,7,8,1,2,3,4b,5,6,7,8,1,2,3,4bh,3,2,1,8,7,6,5,4b,3,2,1,8,7,6,5,4bh,{32}5,6,7,8,1,2,3/7bh,4,5,6,7,8,1,2,3/7bh,4,5,6,7,8,1,2,3/7bh,4,5,6,7,8,1,2,3/7bh,4,5,6,7,8,1,2,3/7bh,4,5,6,7,8,1,2,3/7hb[2:1],,E4,,E5,,E6,,E7,,E8,,E1,,E2,,
{8}E3,3-5[8:1],5-1[8:1],,,,7,3,2-5[8:1],5-1[8:1],1-6[8:1],,,{16}E7,E8,E1,E2,,,{8}2>5[4:1],,E6,E7,{16}E6,B3,E8,B2,B1,Cf,,,6x,5x,6x,5x,6x,5x,6x,5x,6x>1[4:1],5x,6xb,,E5,E4,E3,E2f,
{8}1x-5[8:1],5>2[8:1],2-6[8:1],6<8[8:1],,,{16}B8,C,B4,,{32}A4/7,D4,A3/6,D3,A2/5,D2,,,{16}7,6/3,5h[16:1]/2,1h[8:1],{16},,7b,6,5,1,2,3,,8,7,6,5,4,3,2,1/5b,6,7,8,1,2,3,4,5b/1bx,2b,3,4,5,{16}6,7,8,1b<6[8:1],2b,3b,4b,,,,,,5b/4b,6b/3b,7b/2b,,,E3,B3,B4,E5,,E1,B8,B7,E7,,A2,D3,A3,D4,,A8,D8,A7,D7/3b,A6,,,3,4
,5,6,2b/7h,6,5,4,3,2,1,8,7,6,5,4,3,2,1,8/4b,3,2,1,8,7,6,5,4,3,2,1,8,7,6,5b/Cf,4,3,2,1,,B2,,B6,,B3,,B7,,Cf,,6,,5,,6/2,,6,,5,,6/2,,6,,4,,6/2,,{24}6,7,8,1,2,3,6,7,8,1,2,3,6,7,8,1,2,3,6,7,8,1,2,3,6b,7,8,1,2,3,6b,7,8,1,2,3,6b,7,8,1,2,3,6b,7,8,1,2,3,
{8}Ch[8:1],,7,6,7,5,7<3<7[2:1],3,,,A3f,,A7f,,5,4,5,3,5,3b,5,4,5>5
[2:1],3,,,A1f,,A5f,,8,1,5,C,5,4,5,3,8-4-8[2:1],
,8,,A4f,,A8f,,A3f,5,8,3,1,6,3,7,6,2x,1-4[8:1],
5-8[8:1],4>1[8:1],8<5[8:1],,,,,,5,6,4/2b,5,6,4>4[2:1],
,,,A8f,,A4f,,1,3,E7,4,B2,7,1,A5,6-2-6[2:1],
2b,,,A2f,,A6f,,8/1,4,
(204)E1,E2,E3,E4,E5,E6,E7,E8,
(194)E1,E2,E3,E4,E5,E6,,,
(184){12}5h[8:1]/3b,4,4b,4h[8:1],5,5,5h[8:1],4,4b,4h[8:1],5,5,{8}5b/4h[4:1],,,,B1,,B5,E7,{16}E3f/6,,2,5h[12:1],,,3,4,2,3,1,{24}8b,7,6,5/A2f/D3/D2,A3,D4,{16},,1,2,5,4,6/3,5,4,8,6,1,3,4,6,,{32}2/8,3b/7b,{16}4b/6b,,,,1,3,2,4,2,,6,8,4,5,,,1/8,4,3,,4,3,4,3,4,,3<6[6:1]/2<7[6:1],,2b/3b,,3/2,,,D7f,,,8/5,7,3,2,,5,,6,4,5,3,1,2/5,7,2,3,4,2b,4,3,1,8,6,1b,2b,4b,5b,,{8}1h[1:1],8,7,Cf,6,5,Ch[24:1],6b,8,,2/7,,,,Cf/E8/E2/E4/E6,,{32}1b,8/2,7/3,6/4,5bx,,,,{8},,Cf,E3,E7,,,,{32}8b,7/1,2/6,3/5,4b,,,,
{8}E8f,E4f,E2f,E6f,{12}6,4,7,3,5,1,3,5,2,1b/5b,,,2,4,2,3,5,6,4,6,1,5,2,7,{36}3h/6h,5h/2h,1h[6:1]/4h[6:1],,,,,,,2/5,3/6,4b/7b,,,,,,,
{12}2/3,1,4,2,6,4,2,4,7,8/1,3,4,6,8,1,5,3,6,{8}B7/B6,,E5,,E3/B2,,B5,,B8,,{16}A3f,A4,A8,A1,A6,A2,A7,A3,A8,A4,,,
{8}6h[4:1]/3,7,1,4,2h[4:1],5,7,8,2/3h[2:1],,,,Cf,,,,6h[4:1]/3,7b,1b,4,2h[4:1],5,7,8,2/3h[2:1],,,,{16},B2,,,6h[8:1],,,,
{8}A1f,,5h[4:1],,4,1,3/7h[4:1],,,B7,4,5,3,8,2h[4:1],,Cf,,6,A2,7,A3,8hb[4:1],A4,Cf,,3,E7/B7/B6,2,,1,B5,2h[2:1]/3,B7,B5,B3,Cf,E7,E5,,6h[2:1]/7,,,,Cf,,,,6/5,2,6/5,3,6h[2:1]/5,4,,3,1hb[4:1],,7,,3,,5,,4h[4:1],,,6/,5/E1,4,3/A7,,6h[4:1],4,8,2b,6,8b,4,6,2,4,8,2b,6,8,4,6,2hb[4:1],,,Ch[4:1],,,,,
{4}B7/B3/B2/B6/Ch[1:4],,,,,,,,1hb[1:2],,,,,,,,2h[1:2],,,,,,,,3h[1:2]/Ch[1:2],,,,,,,,
(170)4h[2:1],5,3,,2h[2:1],1,3,,{4}5hb[1:2]/E1,E2,E3,E4,E5,E6,E7,E8,
(160){8}E1,E2,E3,E4,E5,E6,E7,E8,E1/5b,E2,E3,E4,E5,E6,E7,E8,{16}E1/7b,E2,E3,E4,E5,E6,E7,E8,{32}E1,E2,E3,E4,E5,E6,E7,E8,E1,E2,E3,E4,E5,E6,E7,E8,,,,,,,,,,Cf,,,,,,,,,,,,,,,
{16},,,,6,2,7,3,1b,,,,5,6,5,6,3b,,,4,2,5,1,6,8,5,1,4,2,,3,2,3,,,,
{32}1b/2b,3,4,5,,,,,8b/7b,6,5,4,,,,,
{24}3,4,,7,6,,2,3,,7,6,,{16}8,4,1,3,5,4,6,2,4,8,2,6,8h[6:1],,,,
{32}8/1,7,6,5,4,,,,8bh/4bh,3/7,6/2,1/5,,,,,
{8},,
{24}7,4,,7,6,,7,3,,7,6,,{16}8,4,1,3,5,4,6,2,4,8b,,,
{8}E1,E2,E3,E4,Cf,E5,E6,E7,E8,1,2,3,4>1[8:1]*<7[8:1],,4,,
{24},,,7,6,,7,3,,7,6,,{16}8,4,1,3,5,4,6,2,4,5,6,7,4,6,7,1,3,4,5,6,8/1,,,,3h[4:1]/2h[4:1],,,,6h[4:1]/7h[4:1],,,,,,
2,4,5,6,7,1,3,7,4,3,5,1,3,6,4,5,6,,1hx[5:4],,,
{32}D8,E8,C,E4,D4,,,,,D3,E3,C,E7,D7,,,,,
{24},,,,,,7,6,,7,3,,7,6,,{16}8,4,1,3,5,4,6,2,4,3,6,2,4,,
{4}5-8[8:1]/4-1[8:1],A5/A4,{8}6-2[8:1]/3-7[8:1],,,,{4}1/8,C/B7/B8/B1/B2/B3/B4/B5/B6,2/7,3/4,
{8},1-3[12:1],1-7[12:1],1-5[12:1],,,A5f,,6-3[8:1]/7-2[8:1],,2<7<2[3:1]/3>6>3[3:1],,,,,,
{32}2b/8b,3,4,5,,,,1b/7b,6,5,4,,,,,,
{16}4b,4,4,4,4b,4,4,4,4b,4,4,4,4b,4,4b>2[12:1],4b<6[12:1],4b-8b[12:1],,,,,,,,
{32}2b/8b,3,4,5,,,,1b/7b,6,5,4,,,,,,
{16}1,A4,1,A5,1,,1,Cf,1,,1,B7,1,B6,1,,1,,,,7,8,1,2,3,4,5,6,7,8,1,2,3,4,5,6,7,8,1,2,3hb[12:6],,,,,,,,,,5,,5,,5,,
(170){16}5b,5,5b,5,5b,5,5b,5,5b,5,5b,5,5b,5,5b,5,{32}5b/8b,1,2,3,,,,,6b/1b,2,3,4,,,,,2b/8b,7,6,5,,,,,1b/7b,6,5,4,1hb[16:1],,,,
(184){32}1,2,8,7,2,3,7,6,3,4,6,5,3,4,5,4,5,4,5,4,5,4,5/4,4/3,2/3,1/3,8,7,6,5,,,
4b,3,2,1,8,,,,4b,5,6,7,8,,,,4b,3,2,1,8,,,,4b,5,6,7,8,,,,
(204){32}4,4,5,5,4,4,5,5,3,3,6,6,2,2,7,7,1,1,8,8,1,8,1x,8x,1b,8b,1x,8x,1b,8b,,,
{8}2x-4b[0##0.1],7x-5b[0##0.1],4x-2b[0##0.1],5x-7b[0##0.1],2x-4b[0##0.1],7x-5b[0##0.1],4x-2b[0##0.1],5x-7b[0##0.1],
(222)2x-4b[0##0.1],7x-5b[0##0.1],4x-2b[0##0.1],5x-7b[0##0.1],2x-4b[0##0.1],7x-5b[0##0.1],5x>5>5b[0##1.3],,,,,,,,,,Ch[1:7],,,,,,,,,,,,,,,,,,,,,,,,,,,,,,,,1b,,,,,,,,,,,,,,,,8b,,,,,,,,,,,,
{16}E1,E2,E3,E4,E5,E6,,,
{8}6h[10:1]/5h[10:1],5h[10:1]/4h[10:1],4h[6:1]/3h[6:1],,,,1h[10:1]/8h[10:1],7h[10:1]/2h[10:1],3h[6:1]/6h[6:1],,,,,,,,4/5,3-6[0.2##0.1]/6-3[0.2##0.1],4/5,,,,8/7,6-1[0.2##0.1]/1-6[0.2##0.1],2/5,,,,
{16}2,3,4h/5h,6h,7h,,,,
{16}5,6,5,6,5/7b,6,5,6,7b/5,6,5,6,2b,4,2,4,2>5[0##0.2]*<7[0##0.2],,,,,,,,,,,,
5b,6,7,8,1/4h[24:1],2,3/8h[24:1],4,5/2h[24:1],6,7/4h[12:1],8h[12:1],,,,,4/5h[24:1],3,2/7h[24:1],1,8/3h[24:1],7,6,5/2h[24:1],4h[24:1],,,,
{8}2-5>2[0.5##0.5]*-7>2[0.5##0.5],,{16},2,,2,,,,,,,,,{8}B7/B6/E7/3,,A7/D8/E8/A8/4,,5,5,6,7,8,1,2,3,4,5,6,7,8,1,2,3,
{16}4,5,6,7,8,1,2,3,4,5,6,7,8,,,,
{32}1hb[8:1],6x,5x,4x,3b,,,,8hb[8:1],3x,4x,5x,6b,,,,1hb[8:1],6,5,4,3b,,,,8hb[8:1],3,4,5,6b,,,,
1hb[8:1],6,5,4,3b,,,,8hb[8:1],3,4,5,6b,,,,2hb[8:1],7x,6x,5x,4b,,,,7hb[8:1],2x,3x,4x,5b,,,,
1hb[18:1],6b,5b,4b,3b/1hb[12:1],,,,8hb[18:1],3b,4b,5b,6b/8hb[12:1],,,,2hb[18:1],7b,6b,5b,4b/2hb[12:1],,,,7hb[18:1],2b,3b,4b,5b/7hb[12:1],,,,1hb[18:1],6b,5b,4b,3b/1hb[12:1],,,,8hb[18:1],3b,4b,5b,6b/8hb[12:1],,,,2hb[18:1],7b,6b,5b,4b/2hb[12:1],,,,7hb[18:1],2b,3b,4b,5b,6b,7b,8b,
{8}1hb[4:6],,,,,,,,5b,5b,6b-3[0.8##0.05],6b,7b-2[0.55##0.05],7b,,,A2f/A3f,,2/3,,7/6,,1/8,,
{32}4hb[8:1],5,6,7b,,,,,5hb[8:1],4,3,2b,,,,8hb[8:1],2b,3b,4b,5b,,,,,8hb[8:1],2b,3b,4b,5b,,,,8hb[6:1],,,,,,,,
{16}1,2,1,3b,1,2,1,3b,1,2,1,3b,
{32}1hb[18:1],7b,6b,5b,4b,,,,1hb[18:1],7b,6b,5b,4b,,,,8hb[18:1],2b,3b,4b,5b,,,,8hb[18:1],2b,3b,4b,5b,,,,
{16}7-4[0.3##0.1]/8-3[0.3##0.1],,1/6,,7b/8b,,,,1-6[0.3##0.1]/2-5[0.3##0.1],,8/3,,1b/2b,,,,
6b,5,6,5,6b,5,6,5,6b,5,6,5,6b,5,6,5,6b,6,6,6,6x,6,6,6,6x,6,6,6,6x,6,6,6,
{32}6hb[8:1],7,8,1,2b,,,,3hb[12:1],1,8,7,6b,,,,2hb[12:1],7,6,5,4b,,,,1hb[12:1],6b,5b,4b,,,,,
{8}5/6,7-4>6[0.4##0.3]/4-7>6[0.4##0.3],3h[5:1]/8h[5:1],,,,,,
{32}1hb[18:1],6b,5b,4b,3b/1hb[12:1],,,,8hb[18:1],3b,4b,5b,6b/8hb[12:1],,,,1hb[18:1],6b,5b,4b,3b/1hb[12:1],,,,8hb[18:1],3b,4b,5b,6b/8hb[12:1],,,,
{16}5,4,5,4,6,3,5,4,5,4,6,3,5,4,5,,
{32}6hb[6:1],8b,1b,2b,3b,,,,8hb[18:1],3b,4b,5b,6b/8hb[12:1],,,,7hb[18:1],2b,3b,4b,5b/7hb[12:1],,,,7hb[18:1],2b,3b,4b,5b/7hb[12:1],,,,
{16}1,2,1,2,,5,6,5,6,,3,3,6,6,,,8h[12:1],1,2,2,,3,3,4,4,,5h,5h,6h,6h,,,
{32}6hb[6:1],8b,1b,2b,3b,,,,
{16}7,7,4,4,5,5,8,8,4,4,,,
{32}1hb[18:1],7b,6b,5b,4b,,,
{16}1,2,1,2,8,3,7,4,6,5,6,5,6,
{32}5h[6:1],8x,1x,2x,3x,,,5h[6:1],3x,2x,1x,8x,
{16}7,6,5,4,3,2,1,8,7,
{32},6hb[6:1],8b,1b,2b,3b,,,,7hb[6:1],1,2,3,4b,,,,8hb[6:1],2b,3b,4b,5b,,,,7hb[6:1],1,2,3,4b,,,,
{16}5,3,5,3,5,3,5,3,5h[3:1],2,1,8,7,6,,,
{32}8h/4h,3/7,6/2,1/5,,,,,2/6,3/7,4/8,5b,,,,,2h[8:1]/1-6[0##0.1],,,,,,,,5h[8:1]/6x-1b[0##0.1],,,,,,,,
{16}4,5,6,7,1,2,3,4,6,7,8,1,3,4,5,,7,6,5,4,3,2,1h/8b,7,6,5/4,3,2,1h[10:1],,1h[18:1],,,8b,7,6,8b,,4,4,,3,3,,2,2,,,
{32}1/8,7,6,5,4,3,2,1,,,,,,,,,6h[10:1]/2h[10:1],,,,6h[20:1]/2h[20:1],,,,7h[10:1]/3h[10:1],,,,7h[20:1]/3h[20:1],,,,
{16}3,4,3,2,3,4,3,2,3,4,3,2,3,4,3,2,{8}1,8,7,6,5,E5,E4,E3,
5h[8:1],1h[8:1],5h[8:1],1h[8:1],5h[8:1],1h[8:1],5h[8:1],1h[8:1],5h[8:1],4h[8:1],3h[8:1],2h[8:1],1h[8:1],5h[8:1],6h[8:1],7h[12:1],
{16}1,1,2,2,,1,1,3,3b,,1,1,4,4,,6,6,,5,5,,1,2,3,1,5,6,1,2,3,4,5,
{32}6,7,8,1,2,3,4,5,6,7,8,1,2,3,4,5,6,7,8,1,2,3,4,5,6,7,8,1,2,3,4,5,6,7,8/1,2,3,,,8,7,6,,,1,2,3,,,8,7,6,,,1,2,3,,,8,7,6,5/4,3,2,1h[3:1],,,,,,,
{16}6,5,6,7,6,5,6,7,6,5,7,6,
{32}7,8,1,2,3,4,,,
{16}3,4,3,2,3,4,3,2,3,4,3,2,
{32}1,8,7,6,5,4h[5:1],,,
{16},,,,8,8,4,4,1,1,7,7,7,6,5/4,3,2,,7,6,5/4,3,2,1,,,4,4,3h[16:1],,6h[10:1],,7h[16:1],,1h[10:1],,5,6,4,3,,5,6,4,3,7,3,7,3,7,3,7,3,7,3,7,3,7,3,7,3,4/5,6,7,8/1,2,3,4,5,6,7,8/1,8hb[8:1]/1hb[8:1],,,,7/2,6/3,4,5,6,7,8,1,2h[2:1],,,,,,,,1hb[8:1],6,5,4,3b,,,,8hb[8:1],3,4,5,6b,1hb[8:1],6,5,4,3b,,,,8hb[8:1],3,4,5,6b,1hb[8:1],6,5,4,3b,,,,8hb[8:1],3,4,5,6b,1hb[8:1],6,5,4,3b,,,,8hb[8:1],3,4,5,6b,1hb[8:1],6,5,4,3b,,,,8hb[8:1],3,4,5,6b,
4,3,4,3,4,3,4,3,4,3,4,3,4,3,4,3b,3,3b,3,3b,3,3b,3,3b,3,3x,3,3x,3,3x,3,
{32}3,2,1,8,7,6,3,2,1,8,7,6,3,2,1,8,7,6,3,2,1,8,7,6,3,2,1,8,7,6,,,3,4,5,6,7,3,4,5,6,7,3,4,5,6,7,3,4,5,6,7,3,4,5,6,7,3,4,5,6,7,8h[4:1],,,,,,,,,,
{8}3,4,5,6,2,3,
{32}4/1x,1,1x/5,1x,
{8}6b,
{32}4,,5,,
{8}6b,
{32}7/8x,8,8x/6,8x,
{8}5b,
{32}7,,6,,
{8}5b,8,5,6,3,4,6,7,3,
{32}8,8,8,8,
{8}2,3,1,8,6,7,3,
(227){32}2,2,2,2,
{16}8,5,4,1,6,2,5,4,3,4b,7,5,4,6,7,2,3,4,8,6,1,5,3,4,2,7,4,2,3,4,2,1,4,3,4b,7,5,4,6,7,2,3,4,8,4b,3,4,7,5,4,6,7,2,3,4,8,7/1,2/6,,,,,
(232){32}1hb[18:1],6b,5b,4b,3b/1hb[12:1],,,,8hb[18:1],3b,4b,5b,6b/8hb[12:1],,,,2hb[18:1],7b,6b,5b,4b/2hb[12:1],,,,7hb[18:1],2b,3b,4b,5b/7hb[12:1],,,,1hb[18:1],6b,5b,4b,3b/1hb[12:1],,,,8hb[18:1],3b,4b,5b,6b/8hb[12:1],,,,2hb[18:1],7b,6b,5b,4b/2hb[12:1],,,,7hb[18:1],2b,3b,4b,5b,,,,
(237)1hb[18:1],6b,5b,4b,3b/1hb[12:1],,,,8hb[18:1],3b,4b,5b,6b/8hb[12:1],,,,2hb[18:1],7b,6b,5b,4b/2hb[12:1],,,,7hb[18:1],2b,3b,4b,5b/7hb[12:1],,,,1hb[18:1],6b,5b,4b,3b/1hb[12:1],,,,8hb[18:1],3b,4b,5b,6b/8hb[12:1],,,,2hb[18:1],7b,6b,5b,4b/2hb[12:1],,,,7hb[18:1],2b,3b,4b,,,,,1hb[8:1],6x,5x,4x,3b,,,,8hb[8:1],3x,4x,5x,6b,,,,1hb[8:1],6x,5x,4x,3b,,,,8hb[8:1],3x,4x,5x,6b,,,,1hb[8:1],6x,5x,4x,3b,,,,8hb[8:1],3x,4x,5x,6b,,,,1hb[8:1],6x,5x,4x,3b,,,,8hb[8:1],3x,4x,5x,6b,,,,
(241)1hb[8:1],6,5,4,3b,,,,8hb[8:1],3,4,5,6b,,,,1hb[8:1],6,5,4,3b,,,,8hb[8:1],3,4,5,6b,7,8,1,2,3,4,5,6,7,8,1,2,3,4,5,6,7,8,1,2,3,4,5,6,7,8,1,2h[6:1]/7h[6:1],,,,,,,,
(250){16}4-7b[0.2##0.2],3-8b[0.15##0.2],5,2,,,,,7,8,2-5[0.1##0.1],5-2[0##0.1],,,,,4-7[0.2##0.2],3-8[0.15##0.2],,,,,,,7,8,2-5[0.1##0.1],5-2[0##0.1],,,,,4-7[0.2##0.2],3-8[0.15##0.2],,,,,,,,,2-5[0.1##0.1],5-2[0##0.1],,,,,
(250){8}8/7,,1/6,,2/5,,3/4,,
{32}3b/4b,E3/E5,E2/E6,E1/E7,,,,,,,,,1b,8/2,7/3,6/4,5hb[1:12],,,,,,,,,,,,,,,,
{4},,,
{8},E2,,E4,,E6,
{4},,,,,,A2,,A4,,A6,,,,,,,,,,,,,,,,,,
