&title=Joe Fight
&artist=DJ Myosuke
&first=0
&demo_seek=8.6
&lv_2=3
&des_2=Lv Cat
&inote_2=
(175){4},,,,,,,,,5bh[1:3]/4bh[1:3],
,,,,,,,,,,,,,,,3,
,3,
,2/1,,,,8,
,7,
,6/5,,,,4,
,4,
,5/3,,,,5,
,5,
,6/4,,,,3h[2:1],
,4,
,6h[2:1],,5,
,5/4,,6/3,
,7b/2b,,,,1,
,1,
,2,,2,
,3,,3,
,4/3,,,,5,
,5,
,6,,6,
,7,,7,
,8/7,,,,1-5[1:1],
,,,,,,,6-3[1:1],
,,,,,,,4-1[1:1],
,,,,,,,7-4[1:1],
,,,,,,,B1,
,,,B2,
,,,B3,
,,,B4/B5,
,,,B8,
,,,B7,
,,,B6,
,,,B5/B4,
,,,8xh[1:1],
,,,7h[1:1],
,,,6h[1:1],
,,,5h[1:1],
,,,4h[1:1],
,,,3h[1:1],
,,,2h[1:1],
,,,1,
,,,8b,
,8,
,7,,7,
,6,,6,
,5/6,,,,4,
,4,
,3,,3,
,2,,2,
,1/2,,,,8x,
,8x,
,1,,1,
,2,,2,
,3/4,,,,5,
,5,
,6,,6,
,7,,7,
,8h[1:1]/1h[1:1],,,,,,,,,,,,,,,,,,,,1x,
,1x,
,2,,2,
,3,,3,
,4/2,,,,5,
,5,
,4,,4,
,6,,6,
,7/5,,,,8,
,8,
,1,,1,
,8,,8,
,7/1,,,,2-5[1:1],
,,,,,,,6<1[1:1],
,,,,,,,3-8[1:1],
,,,,,,,7<4[1:1],
,,,,,,,B8,
,,,B7,
,,,B6,
,,,B5/B4,
,,,B1,
,,,B2,
,,,B3,
,,,B4/B5,
,,,B8,
,,,B7,
,,,B6,
,,,B5,
,,,B4,
,,,B3,
,,,B2,
,,,Cf,
,,,8,
,,,8,
,,,7,
,,,6/5,
,,,4,
,,,4,
,,,3,
,,,3,
,,,2bx/1b,
E
&lv_3=7+
&des_3=Lv Cat
&inote_3=
(175){4},,,,,,,,,4b/5b<4[1:3],
,,,,,,,,,,,,,,,5,
,5,
,6,,7/8,
,1,,1,
,2,,3/4,
,5,,4,
,3,,2/1,
,1,,8,
,7,,6/5,
,4h[2:1]/3h[2:1],,,,6h[2:1]/5h[2:1],
,,,5h[1:1]/4h[1:1],
,,,,,,,4,
4,3,
3,2,2,1/8,
,8,8,7,
7,6,6,5/4,
,3,3,4,
4,5,5,6/5,
,7,7,8,
8,1,1,2/1,
,3h[2:3],,4,
,5,,6,
,6h[2:3],,5,
,4,,3,
,2h[2:3],,4,
,5,,6,
,7h[2:3],,5,
,4,,3,
,2qq4[1:1],,,,,,,,6qq8[1:1],
,,,,,,,1z5[1:1],
,,,,,,,6z2[1:1],
,,,,,,,1x,
1x,1x,
,2,2,2,
,3,3,3,
,3/4,,,,5,
5,5,
,6,6,6,
,7,7,7,
,7b/8b,,,,B8,
B7,B6/B5,
,B1,B2,B3/B4,
,B8,B7,B6,
B5,B4,B3,C,
,B1,B2,B3/B4,
,B8,B7,B6/B5,
,B1,B2,B3,
B4,B5,B6,C,
,E8/B7,,,,E6/B5,
,,,B3/E4,
,,,E2/B1,
,,,B8/B7,
,,,B3/B4,
,,,B5/B6,
,,,Cfh[1:1],
,,,,,,,,,,,,,,,,,,,8xh[1:1]/7xh[1:1],
,,,,,,,6xh[1:1]/5xh[1:1],
,,,,,,,4b/3b,
3,2,
2,1,1,1/8,
,8,8,7,
7,6,6,5/6,
,3,3,4,
4,5,5,6/4,
,6,6,5,
5,4,4,5/3,
,2v5[1:1],,,,,,,,6V48[1:1],
,,,,,,,1s5[1:1],
,,,,,,,5<8[1:1],
,,,,,,,1b,
1,2,
2,3,3,4/3,
,5,5,6,
6,7,7,8/7,
,7,6,5,
4,3,2,1/8,
,2,3,4,
5,6,7,8/1,
,7/8,8/7,8/7,
,6/5,5/6,6/5,
,4/3,4/3,4/3,
,2/1,2/1,2/1,
,3/4,4/3,3/4,
,5/6,6/5,6/5,
,5/4,5/4,5/4,
,6/3,6/3,6b/3b,
,5,5,6,
6,7,7,8/7,
,1,1,2,
2,3,3,3/4,
,5/3,4,3,
2,1,8,7/6,
,4/6,5,6,
7,8,1,2/3,
,5b/4b,
E
&lv_4=11+
&des_4=Lv Cat
&inote_4=
(175){4},,,,,,,,,1bx-3-5-7-1[4:13]/8bx<8[4:13],
,,,,,,,,,,,,,,,5b/4bh[4:3],
7,3,
3,2/5,6/3,8b/1b,
,4b/5bh[4:3],2,6,
6,7bh[2:1]/4bh[2:1],,,,4b/5bh[4:3],
2,6,
6,7/4,3/6,1b/8b,
,5b/4bh[4:3],7,3,
3,5,2,1b/8b,
,8<5[4:1]/1p4[4:1],,,,4>1[4:1]/5p8[4:1],
,,,7/2,
4/3,6/5,
8/1,7bh[2:1]/2bh[2:1],,,,5/3,
5/3,6/4,
6/4,7/1,7/1,8/2,
8/2,4/3,4/3,6/5,
6/5,7/4,8/3,2bx/1bx,
,4/6,4/6,3/5,
3/5,2/8,2/8,1/7,
1/7,5/6,5/6,3/4,
3/4,2/5,1/6,7bx/8bx,
,6/4,6/5,7/4,
2/1,3/4,5/2,8/7,
5/1,6/3,6/3,8/4,
8/4,5/7,1/3,5/7,
3b/1b,3/5,3/4,2/5,
7/8,6/5,4/7,1/2,
4/8,3/6,3/6,1/5,
1/5,4/2,8/6,4b/2b,
,7/3b-8[8:1],5,7/3-8[8:1],
5,2/6b-1[8:1],4,2/6-1[8:1],
4,7/3b>8[8:1],5,7/3>8[8:1],
5,2/6b<1[8:1],4,2/6<1[8:1],
4,7/2b-4[8:1],5,8/1-4[8:1],
5,2/7b-5[8:1],4,1/8-5[8:1],
4,7/2b-4[8:1],5,8/1-4[8:1],
5,2/7bpp5b[2:1],,,,7/3b-8[8:1],
5,{8}7/3-8[8:1],6,
{4}5,2/6b-1[8:1],4,{8}2/6-1[8:1],3,
{4}4,7/3b>8[8:1],5,{8}7/3>8[8:1],6,
{4}5,2/6b<1[8:1],4,{8}2/6<1[8:1],3,
{4}4,7/2b-4[8:1],5,{8}8/1-4[8:1],7,
{4}6,2/7b-5[8:1],4,{8}1/8-5[8:1],2,
{4}3,7/2b-4[8:1],5,{8}8/1-4[8:1],7,
{4}6,2/7b-1-5-3b[2:1],{8},,,,,,4/3,
4/3,{4}5/2,4h[4:1]/3h[4:1],
,2/1,8/1,8h[4:1]/7h[4:1],
{8},,5/6,5/6,{4}4/7,5h[4:1]/6h[4:1],
,7/4-1[8:1],,7-2[8:1],
{8},,4/3,4/3,{4}5/2,4h[4:1]/3h[4:1],
,2/1,8/1,8h[4:1]/7h[4:1],
{8},,5/6,5/6,{4}4/7,5h[4:1]/6h[4:1],
,7/4-1[8:1],,7-2[8:1]*>2[8:1],
,,6b/5b,6bh[4:1]/5bh[4:1],
{8},,4bx/3bx,4bx/3bx,{4}4bx/3bx,5bh[4:1]/2bh[4:1],
,2b/1b,8b/1b,8bh[4:1]/7bh[4:1],
,6b>3[8:1],,2bxh[2:1],
,1b,8b/3b,8bh[4:1]/3bh[4:1],
{8},,6bx/5bx,6bx/5bx,{4}6bx/5bx,4bh[4:1]/7bh[4:1],
,5b/3b,{8}4b,5b,{4}4b,
6b/3b,7b-5[8:1]/2b-4[8:1],,E1f/A8/B8/A1/B1,
,7bxh[2:7]/2bx-6-4-1-7-5-3-8[4:13],,,,,,,,,,,,,,,,5/4,
5/4,6h[4:1]/3h[4:1],
{8},,5,4,{4}5,6h[4:1]/3h[4:1],
{8},,5/4,5/4,{2}4-1-3v5[8:7]/5-8-6v4[8:7],
{4},,,,7b/2b,
8/3,6/1,8/3,
6/1,8/3,6/1,8/3,
6/1,8h[8:1]/3h[8:1],6h[8:1]/1h[8:1],8h[8:1]/3h[8:1],
6h[8:1]/1h[8:1],7h[8:1]/2h[8:1],5h[8:1]/4h[8:1],7h[8:1]/2h[8:1],
5h[8:1]/4h[8:1],6b/3b,8/1,6/3,
5/4,6/3,7/4,5/2,
8/1,8/1,6/3,5/4,
6/3,7/4,5/2,8/1,
7/2,6b/3b,4-1[8:1],6-4[8:1],
2-5[8:1],7-3[8:1],1-4[8:1],8-5[8:1],
3-1[8:1],7-4[8:1],2-5[8:1],6-3[8:1],
2-7[8:1],6<8[8:1]*>4[8:1],,2<8[8:1]*>4[8:1],
,7x/5x,5-8[8:1],3-5[8:1],
7-4[8:1],2-6[8:1],8-5[8:1],1-4[8:1],
6-8[8:1],2-5[8:1],7-4[8:1],3-6[8:1],
7-2[8:1],3>1[8:1]*<5[8:1],,7>1[8:1]*<5[8:1],
,3bx-8[8:1],5,{8}7/3-8[8:1],6,
{4}5,2/6b-1[8:1],4,{8}2/6-1[8:1],3,
{4}4,7/3b>8[8:1],5,{8}7/3>8[8:1],6,
{4}5,2/6b<1[8:1],4,{8}2/6<1[8:1],3,
{4}4,7/2b-4[8:1],5,{8}8/1-4[8:1],7,
{4}6,2/7b-5[8:1],4,{8}1/8-5[8:1],2,
{4}3,7/2b-4[8:1],5,{8}8/1-4[8:1],7,
{4}6,2b/7bp4b[2:1],{8},,,,,,3bx/4bx,
4bx/3bx,{4}4bx/3bx,5b/2b,
7b/4b,8b/1b,6b/3b,{8}6bx/5bx,6bx/5bx,
{4}6bx/5bx,{8}8bx/1bx,8bx/1bx,{4}8bx/1bx,4b/2b,
7b/5b,3b-6b[8:1],,7b-2b[8:1],
{8},,3bx,4bx,{4}5bx/2bx,7b/4b,
5b/2b,7b/4b,8b/1b,{8}6bx/3bx,6bx/3bx,
6bx/3bx,6bx/3bx,{4}6bx/3bx,4b/2b,7b/5b,
6b/3b,5b/4b-2[8:1],5b-7[8:1],4bw8[8:1],
,2bx-5[8:1],7bx-3[8:1],1bx-5[8:1],
6bx-3[8:1],4bx-8[8:1],7bx-3[8:1],2bx-5[8:1],
6b,7bx-4[8:1],2bx-6[8:1],8bx-4[8:1],
3bx-6[8:1],5bx-1[8:1],4b,3bx-8[8:1],
4b,6bx-3[8:1],1bx-5[8:1],7bx-3[8:1],
2bx-5[8:1],6bx-8[8:1],1bx-5[8:1],6bx-3[8:1],
2b,1bx-4[8:1],7bx-4[8:1],1bx-5[8:1],
8bx-5[8:1],3bx-7[8:1],4b,5bx-8[8:1],
4b,1b>1b[1:4]*V75V31b[1:4],
E
&lv_5=13+
&des_5=Lv Cat
&inote_5=
(175){4},{1},,{32}5bx/4bx-1<7>1-4b[4:13],
6bx/3bx,{16}7bx/2bx,{1},,,{4},,,{8},{4}6bx/2bxh[4:5],
B5/E5,{8}8,8,
{4}8,6,5w1b[8:1],{64}B5f,B7/C/B3,B8/B2,E1/E2,{16}A1,,,,,,,{4}3bx/7bxh[4:3],
B4/B5,{8}1,1,
{4}1w5b[8:1],{64}B1f,B3/C/B7,B4/B6,E5/E6,{16}A5,,,,,,,{4}8xh[4:1]/2xh[4:1],
,4bx/5bx-8[8:1],3,2-8[8:1],
7,7-3[8:1],1w5b[8:1],{64}B1f,B3/C/B7,B4/B6,E5/E6,{16}A5,,,,,,,{4}5bx-8>5[8:5],
4,5,
5,7/3,1w5b[8:1],{64}B1f,B3/C/B7,B4/B6,E5/E6,{16}A5,,,,,,,{4}2bx/6bx,
8w4b[8:1],{64}B8f,B6/C/B2,B5/B3,E5/E4,{16}A4,,,,,,,{4}7bx/3bx,
1w5b[8:1],{64}B1f,B3/C/B7,B4/B6,E5/E6,{16}A5,,,,,,,{4}3b-1[8:1]/5b-7[8:1],
5b/3b,3b-8[8:1]/5b-8[8:1],
5b/3b,5b/3b<5-8b[4:1],,A8f,
,6h[8:1]/4h[8:1],6h[8:1]/4h[8:1],7h[8:1]/5h[8:1],
7h[8:1]/5h[8:1],8h[8:1]/1h[8:1],6h[8:1]/4h[8:1],8/1,
{16}3,4,{8}2,{4}3h[8:1]/5h[8:1],3h[8:1]/5h[8:1],1h[8:1]/8h[8:1],
{8}5/2,5/2,{4}4/3,{8}1/8x,8/1x,3,1/8x,
8/1x,{16}6,5,{4}7b,{16}4,5,4,5,{4}6h[8:1]/3h[8:1],
6h[8:1]/3h[8:1],4h[8:1]/2h[8:1],8h[8:1]/1h[8:1],7h[8:1]/5h[8:1],
{16}6,5,{8}6,7/4h[8:1],7,8/3h[8:1],8,1/6h[8:1],1,
{16}2,5,2,5,{4}3b>8[8:1]*V17[8:1],A3f,6b<1[8:1]*V82[8:1],
A6f,8bx/1bx,{8}7/4h[8:1],6,2/5h[8:1],3,
7/4h[8:1],6,2/5h[8:1],3,7/4h[8:1],6,5/4,5/4,
6/3,3/6,6/1h[8:1],7,3/8h[8:1],2,6/1h[8:1],7,
{16}8,1,8,1,{4}7/2,{8}4/5x,5/4x,7,4/5x,
5/4x,{16}3,4,{4}2b,{8}7/3,7/3,2/5h[8:1],3,
7/4h[8:1],6,1/6h[8:1],2,8/3h[8:1],7,6/2,6/2,
{16}5,3,5,3,{8}2/6h[8:1],3,8/4h[8:1],7,1/5h[8:1],2,
{16}6,3,6,3,{4}5b-8[8:1]/4b-1[8:1],Cf,2-8[8:1]/7-3[8:1],
{64}7b/2b,E1f,,,,,,,,,,,,,,,{4}1bxpp4[8:5],{8}7,6,{4}8-4[8:1],
{32}8b,{64}C,B4,{16}A4f,,,{4}2bxpp5[8:5],{8}8,7,{4}1-5[8:1],
{64}1b,C,B5,A5f,,,,,,,,,,,,,{4}3bxpp6[8:5],{8}1,8,{4}1-6[8:1],
{64}1b,B7,E7,A6f,,,,,,,,,,,,,{4}8bx/7bx,{8}5-1b[8:1],4,{4}5b/3-8b[8:1],
7/3b,8bxqq5[8:5],{8}2,3,{4}1-5[8:1],
{64}1b,C,B5,A5f,,,,,,,,,,,,,{4}7bxqq4[8:5],{8}1,2,{4}8-4[8:1],
{64}8b,C,B4,A4f,,,,,,,,,,,,,{4}6bxqq3[8:5],{8}8,1,{4}8-3[8:1],
{64}8b,B2,E3,A3f,,,,,,,,,,,,,{4}1bxz5z1b[2:1]/2bxs6s2b[2:1],,,,7b/3b-8[8:1],
{64}7x,E7,B6,B5,{16}E5f,,,{8}1-5[8:1],8,
{4}1/7,6b/2b-7[8:1],{64}6x,E6,B5,B4,{16}E4f,,,{8}8-4[8:1],7,
{4}8/6,7b/3b-8[8:1],{64}7x,E7,B6,B5,{16}E5f,,,{8}1-5[8:1],8,
{4}1/7,6b-3[8:1]/2b-7[8:1],Cf,{8}8/1,8/1,
7/2,2/7,{4}2b/6b-1[8:1],{64}2x,E3,B3,B4,{16}E5f,,,{8}8-4[8:1],1,
{4}8/2,3b/7b-2[8:1],{64}3x,E4,B4,B5,{16}E6f,,,{8}1-5[8:1],2,
{4}1/3,2b/6b-1[8:1],{64}2x,E3,B3,B4,{16}E5f,,,{8}8-6[8:1],1,
{4}8/2,5bs1s5b[2:1]/4bz8z4b[2:1],,,,{32}2bx,
3,{16}4,{32}7bx,6,{16}5,{32}2bxv5[8:1],3,{16}4,{32},,,,8bx,7,{16}6,,,{4}1b/8b,
{32}1bx,2,{16}3h[16:3],{32},,,,8bx,1,{16}2h[16:3],{32},,,,7bx,8,{16}1h[16:3],,,{4}6b,
{32}7bx,6,{16}5,{32}2bx,3,{16}4,{32}7bxv4[8:1],6,{16}5,{32},,,,1bx,2,{16}3,,,{4}8b/1b,
7b-4[8:1]/2b-5[8:1],E5,1b/8b,
E5f/E6/E4,{32}8bx,7,{16}6,{32}1bx,2,{16}3,{32}7bxv4[8:1],6,{16}5,{32},,,,2bx,3,{16}4,,,{4}8b/1b,
{32}8bx,7,{16}6h[16:3],{32},,,,1bx,8,{16}7h[16:3],{32},,,,2bx,1,{16}8h[16:3],,,{4}3b,
{32}2bx,3,{16}4,{32}7bx,6,{16}5,{32}2bxv5[8:1],3,{16}4,{32},,,,8bx,7,{16}6,,,{4}1b/8b,
2b-5[8:1]/6b-2[8:1],,1w5b[8:1],
,2b/8b,{32}6bx,5,{16}4h[16:3],{32},,,,7bx,6,{16}5h[16:3],,,{4}8b,
{32}1bx,2,{16}3,{32}8bx,7,{16}6,{32}2bx,3,{16}4-1[32:3],{32},,,,7bx,6,{16}5,,,{4}8b,
{32}3bx,4,{16}5h[16:3],{32},,,,2bx,3,{16}4h[16:3],{32},,,,1bx,2,{16}3h[16:3],,,{4}8b,
6b-3[8:1]/2b-5[8:1],,8w4b[8:1],
,1b/7b,{32}3bx,4,{16}5h[16:3],{32},,,,2bx,3,{16}4h[16:3],,,{4}1b,
{32}8bx,7,{16}6,{32}1bx,2,{16}3,{32}7bx,6,{16}5-8[32:3],{32},,,,2bx,3,{16}4,,,{4}1b,
{32}6bx,5,{16}4h[16:7],,,{8}6bx,7bx,{4}8bx,
1b/5b,7bv1[8:1]/3bv5[8:1],,2-6b[8:1],
,Cf/8bw4b[4:13],,,,,,,,,,,,,,,,3bx-1[8:1]/4bx-1[8:1],
,B4f/B5/B3,
B7/E8/B8,{8}6bx-8[8:1]/5bx-8[8:1],6bx/5bx,,,{4}B5f/B4/B6,
B2/E2/B1,{8}4b-1[8:1]/5bpp8b[8:5],5b/4b,{2}5b/4b,
{4},Cfh[4:3],8,{8}7,6,
{4}5b,{8}2x/7x,{16}3,4,{8}3,{16}6,5,{8}6,7/4,
8/3,2,3x/6x,{16}2,1,{8}2,{16}7,8,{8}7,6/1,
5/2,3,7x/4x,{16}3,4,{8}2,{16}6,5,{8}7,8/1,
7/2,6/3,{4}4bx-1[8:1],{8}6b,6b,5b-8[8:1],1b,
{4}1b,7b/3bx,{8}4/6,{16}6,5,{8}7,{16}3,4,
{8}2,1/8,2x,3/6,5,{16}7,8,{8}6,{16}2,1,
{8}3,4/5,5xh[16:1],5h[16:1],3h[16:1],3h[16:1],6h[16:1]/5h[16:1],5h[16:1]/6h[16:1],
4h[16:1]/3h[16:1],4h[16:1]/3h[16:1],{4}5x<7qq4[2:1]/2x<8pp3[2:1],,,,1bx,
{16}3b,4,{8}2b,{16}6b,5,{8}7,
{16}8b,1,{8}8,{16}6b,5,{8}7,{16}2b,1,{8}2,{16}7b,8,7b,6,
7b,5,{8}7,{16}3b,4,{8}2,{16}6b,5,{8}7,{16}1b,8,{8}1,
{16}5b,4,6b,3,{8}7b/2b,7,8/1,8/1,3,8/1,
{64}8h[4:1]/1h[4:1],,,,,,,,,,,,,,,,,E8,E2,B7,B2,B6,B3,E6,{8}E4,{16}6bx,5x,{8}7bx,{16}3bx,4x,{8}2x,
{16}8b,1,{8}8,{16}4b,5,{8}3,{16}7b,8,{8}7,{16}2b,1,2b,3,
2,4,{8}2,{16}6b,5,{8}7,{16}3b,4,{8}2,{16}8b,1,{8}8,
{16}4b,5b,3b,6b,{8}2b/7b,1/8,2/7,6/3,{64}5bx/4bx,E4,E6,B3,B6,B2,B7,E2,{8}E8f,
,,1bv3>2-5[8:5],1,8,8,7-4[8:1],8,
{4}A7f,{8}2bv4>3-6[8:5],2,1,1,8-5[8:1],1,
{4}A8f,{8}1bv3>2-5[8:5],1,8,8,7-4[8:1],8,
{4}A7f,3b>2-8[8:1]*<4-6[8:1],{8},,7b,8b,
1b,7b/2b,8bv6<7-4[8:5],8,1,1,2-5[8:1],1,
{4}A2f,{8}7bv5<6-3[8:5],7,8,8,1-4[8:1],8,
{4}A1f,{8}8bv6<7-4[8:5],8,1,1,2-5[8:1],1,
{4}A2f,6b>4-1-4<6b[2:1],{16},,,,,,,,,,,,7b,
8,{8}6b,{16}2b,1,{8}3,{16}5b,4,{8}5,
{16}1b,8,{8}2,{16}6b,5,{8}6,{16}3b,4,{8}3,{16}6b,5,6b,7,
6b,8,{8}6,{16}2b,1,{8}3b,{16}7b,8,{8}6,{16}4b,5,{8}4,
{16}8b,1,7,2,{8}6b/3b-8b[8:1]*-1b[8:1],5/4,,,6b-1b[8:1]*-8b[8:1],5,
{16},,,,2b,1,{8}3b,{16}7b,8,{8}6,{16}4b,5,{8}4,
{16}8b,1,{8}7,{16}3b,4,{8}3,{16}6b,5,{8}6,{16}3b,4,3b,2,
3b,1,{8}3b,{16}7b,8,{8}6b,{16}2b,1,{8}3,{16}5b,4,{8}5,
{16}1b,8,2,7,{8}3b/6b,4/5,3,{16}5,4,{8}5,6/3,
{4}8b/1b,{8}8b/2b,7b/2b,{4}6b/2b-6[8:1],2/1-5[8:1],
1/8-4[8:1],8/7-3[8:1],6/7,{8}5/4,6/5,
{4}4/3,{8}4b/6b,3/6,{4}2/6-2[8:1],6/5-1[8:1],
5/4-8[8:1],4/3-7-5b[8:1],,1-5-3b[8:1],
{8},,2bx/8bx,3b/7b,{4}4b/6b-2[8:1],6/5-1[8:1],
5/4-8[8:1],4/3-7[8:1],3/2,{8}1/8,2/1,
8/7,6/5,4b/3b,5/2,{4}6/1-5[8:1],1/4-8[8:1],
4x/5x-1[8:1],5/6b-2-4b[8:1],,8b-5-3b[8:1],
{64},,,,,,,,,,,,,,,,B1f/1b<1V75V31b[1:4],B3/C/B7,B4/B6,E5/E6,{16}A5,
E
