&title= Daybreak Dancehall
&artist=Reku Mochizuki
&first=0
&lv_5=14
&des_5=MinoUwU
&inote_5=
(180){4},{16},,,,,7/2-5[8:1],,,,2/8-4[8:1],,,,8/1,
,1,,2,7,2,7,3-1[8:1],,4,,5-7[8:1],,4,
,3-1[8:1],,4,,5-7[8:1],,4,,3-1[8:1],,4,,5,,4,
,1,{8}8,{16}8,1,,8/1,,6-8[8:1],,5,,4-2[16:3],,5,
,6-8[8:1],,5,,4-2[16:3],,5,,6-8[8:1],,5,,4,,5,
,4,{8}5,{16}5,4,,5/4,,8/1,,2,,8/1,,7,
,8/1,,3,,8/1,,6,,5/4,,2,,5/4,,7,
,5/4,,1,,5/4,,8,,2b,5,4,5,4,5,4,
5,1b,5b,4b,6b,3b,7b,2b,8b,1-3[8:1],,,,1/7-5[8:1],,,,7/1,
,1,,1,8,1,8,1bxpp4[2:1],,,,,,,,,,,,,,,,7qq4[8:3],
,,,,,,,,,,,8/1-5[8:1],
,2,,1b/3b,,,,2h[8:1],,,,7h[8:1],
,,6h[8:1],,,5,,1/7,,1,,8/2,,1h[16:1],
,6x/4x,,5,,6b/4b,,7b/3b,,8b/2bpp5[2:1],,,,,,,,,,,,,,,,8qq5[16:5],
,,,,,,,,,,,8-4[8:1]/1-5[8:1],
,7/2,,8b/1b,,,,,,,,,,,,,,,,8/1h[2:1],
,,,7,,,,6,
,6,,8x-4[8:1],1,2,3,4/8b/Cf,,,,3h[8:1]/5h[8:1],,,,3h[8:1]/4h[8:1],
,,,3h[8:1]/2h[8:1],,,,3h[8:1]/6h[8:1],,,,3h[8:1]/5h[8:1],,,,3h[8:1]/4h[8:1],
,,,3h[8:1]/2h[8:1],,,,6h[8:1]/3h[8:1],,,,6h[8:1]/4h[8:1],,,,6h[8:1]/5h[8:1],
,,,6h[8:1]/7h[8:1],,,,6h[8:1]/3h[8:1],,,,6h[8:1]/4h[8:1],,,,6h[8:1]/5h[8:1],
,,,6h[8:1]/7h[8:1],,,,2-4[0.1667##0.25],,2,,1-5[0.1667##0.25],,1,
,8-4[0.1667##0.25],,8,,7-5[0.1667##0.25],,7,,1-3[8:1],,8-6[8:1],,1,,8,
,1-5[8:1],,8-4[8:1],,1,,8,,2,7,2,7,2,7,2,
7,{32}2,3,4,5,6,7,8,1,2,3,4,5,6,7,{16}8,1bxh[16:15],,,,,,,,,,,,,,,,7/2-5[8:1],
,,,2/8-4[8:1],,,,8/3-7[8:1],
,,,3/6,,,,2-4[8:1]/8-6[8:1],,1,,2/8-4[8:1],,,,8/1-5[8:1],
,,,1/8,,,,3,6,5,6,2,5,4,
5,1,,4h[16:1],{8}3h[16:1],{16}5h[16:1],4h[16:1],,7,5,6,4,5,3,4,
2,8-4[8:1],,8,,8b/1b,,,,2/7-3[8:1],,,,7/1-4[8:1],,,,1/6-2[8:1],
,,,6/3,,,,6-8[8:1]/4-2[8:1],,5,,6/4-8[8:1],,,,4/5-1[8:1],
,,,5/4,,,,6,3,4,3,7,4,5,
4,8,,5h[16:1],{8}6h[16:1],{16}4h[16:1],5h[16:1],,2,4,3,5,4,6,5,
7,1-5[8:1],,1,,1b/8b,,,,2-6[8:1],,,,2/1,,8,
,1/7-4[8:1],,,,7/1,,2,,8-5[8:1]/3-5[8:1],,,,3>8[8:1]`8<5[8:1],,,,8w4[8:1],
,,,,,,,7-3[8:1],,,,7/8,,1,
,8/2-5[8:1],,,,2/8,,7,,1-4[8:1]/6-4[8:1],,,,6<1[8:1]`1>4[8:1],,,,1w5[8:1],
,,,,,,,8/1,,2,,3/4,,5,
,8/6,,7,,2/4,,3,,6/5,,1,,3/4,,8,
,6/4,,2/8,,5/3,,7/1,,8,1,8,2,8,3,8,
4,8,4,5,4,6,4,7,4,8-4[8:1],,,,8/2-5[8:1],,,,2/7,
,7,,1,8,1,8,1bxV35[8:11],,,,,,,,,,,,,,,,E8,
,,,,,,,B6,
,,,B5,,,,8V64[8:11],,,,,,B1,
{1},{4},{16},2>5[8:13],
,,,2,,,,,,,,,,,,,,,,B1,
,,,,,,,B6,
,,,7<4[8:11],,,,7,,,,,,B2,
,,,,,,,,,,,,,,,,,E1,
E2,E3,E4,E5,E6,E7,E8,3/4,,3,,5/2,,3,
{8}4,{16}4,3,,6,5,6,5,7/4,,4,,6/5,,,,2/7,
,1,8,1,8,1,,7/2,,3,,5/4,,4,
{8}5,{16}5,4,,3,4,3,4,5/2,,2,,1/6,,7,
8,,,7,8,7,8,7,,6/5,,6,,4/7,,6,
{8}5,{16}5,6,,3,4,3,4,2/5,,5,,3/4,,,,7/2,
,8,1,8,1,8,,2/7,,6,,4/5,,5,
{8}4,{16}4,5,,6,5,6,5,4/7,,7/4,,8/3,,,,2,
3,4,5,8,7,6,5,3/4h[8:1],,,,1/4h[8:1],,2,
,3/4h[8:1],,,,5/4h[8:1],,5,,6-8[8:1]/2-4[8:1],,,,2-8[8:1]/6-4[8:1],,,,2-6[8:1]/6-2[8:1],
,,,Cf,,,,3/4h[8:1],,,,1/4h[8:1],,2,
,3/4h[8:1],,,,5/4h[8:1],,5,,7-1[8:1]/3-1[8:1],,,,7-5[8:1]/3-5[8:1],,,,7-3[8:1]/3-7[8:1],
,,,Cf,,,,6b/4b,,2,,3/5,,7,
,6b/5b,,1,,4/3,,8,,3b/1b,,2,,8b/6b,,7,
,4b/3b,,2b/1b,,8b/7b,,6b/5b,,2,3,4,5,E3,E4,E5,
E6,7,6,5,4,E7,E6,E5,E4,8b-4[8:5],,,,E2,,,,E7,
,,B3,,,B5,,6b/5h[8:1],,1,,5/4h[8:1],,8,
,3/4,,2,1,2,,8/7,,8-2[8:1],,7-3[8:1],,8-4[8:1],,7-5[8:1],
,8,,7,,2,,2,,3b/4h[8:1],,8,,4/5h[8:1],,1,
,6/5,,7,8,7,,1/2,,4/3,,5/6,,7/8,,2/1,
2h[8:1]/1h[8:1],,,7/8,,6/1,,5/2,,3b/4h[8:1],,8,,4/5h[8:1],,1,
,6/5,,7,8,7,,1/2,,1-7[8:1],,2-6[8:1],,1-5[8:1],,2-4[8:1],
,1,,2,,7,,7,,6b/5h[8:1],,1,,5/4h[8:1],,8,
,3/4,,1,8,1,,8/1,,7b-4[8:1]/2b-5[8:1],,8b/1b,,7b/2b,,,,2b/8b,
,8b/2b,,1,1,1,,6b/5h[8:1],,1,,5/4h[8:1],,8,
,3/4,,2,1,2,,8/7,,2/4,,6/5,,3/1,,7/8,
,3/4,,1/2,,5/6,,2/1,,3b/4h[8:1],,8,,4/5h[8:1],,1,
,6/5,,7,8,7,,1/2,,4/3,,5/6,,7/8,,2/1,
2h[8:1]/1h[8:1],,,7/8,,6/1,,5/2,,3b/4h[8:1],,8,,4/5h[8:1],,1,
,6/5,,7,8,7,,1/2,,7/5,,8/1,,2/4,,8/7,
,6/5,,4/3,,2/1,,8/7,,5/1,,5/1,,8/4,,8/4,
,7/3,8/4,1/5,2/6,3/7,4/8,1/5,,2bx-6[8:1]/6bx-2[8:1],,,,Cf,,,,8-4[0.1667##0.1667]/1-5[0.1667##0.1667],
,8b/1b/Cf,,,,,,2/4,,3,,7,5,6,
4,5,,3/4,,1,2,3,4,6,,6,5,1,2,3,
4,5/6,,8/7,,1/2,,4/3,,7/5,,6,,2,4,3,
5,4,,6/8,,1,2,3,4,5h[4:1]/E4,E3,E2,E1,E8,,6h[4:1]/E5,
E4,E3,E2,E1,,1,8,1,8,7/2,,5,,2,4,3,
5,4,,6/5,,8,7,6,5,3,,3,4,8,7,6,
5,4/3,,1/2,,8/7,,5/6,,2/4,,3,,7,5,6,
4,5,,3/1,,8,7,6,5,4h[4:1]/E6,E7,E8,E1,E2,,3h[4:1]/E5,
E6,E7,E8,E1,,1bx,1bx,1bx,1bx,1bx<6[8:1],,2,,3,,4>1[8:1],
,5,,6,,7<4[8:1],,8,,1,,2<7[8:1],,3,,4,
,5-2[8:1],,6-1[8:1],,5,,6,,7<4[8:1],,8,,1,,2<7[8:1],
,3,,4,,5>2[8:1],,6,,7,,8<5[8:1],,1,,2,
,3-8[8:1],,4-7[8:1],,3,,4,,2,,2,,1,,1,
,8,,8,,7,,7,,1-3[8:1],,8-6[8:1],,1,,8,
,1-5[8:1],,8-4[8:1],,1,,8,,2,7,3,5,1,6,4,
7,2,6,3,8,1,5,4,,1/8,,,,7/2,,,,8b/4b,
,1b/5b,,,,,,7/2,,8/1,8/1,7bxh[8:9]/2bxh[8:9],,,,,,,,,,,,,,,,,,,,6bx/3bx,
,4,5,4,5,4,,3,6,5,6,2,5,4,
5,1,,4h[16:1],{8}3h[16:1],{16}5h[16:1],4h[16:1],,7,5,6,4,5,3,4,
2,8-4[8:1],,8,,8b/1b,,,,2/7-3[8:1],,,,7/1-4[8:1],,,,1/6-2[8:1],
,,,6/3,,,,6-8[8:1]/4-2[8:1],,5,,6/4-8[8:1],,,,4/5-1[8:1],
,,,5/4,,,,6,3,4,3,7,4,5,
4,8,,5h[16:1],{8}6h[16:1],{16}4h[16:1],5h[16:1],,2,4,3,5,4,6,5,
7,1-5[8:1],,1,,1b/8b,,,,2-6[8:1],,,,2/1,,8,
,1/7-4[8:1],,,,7/1,,2,,8b-5b[8:1]/3b-5b[8:1],,,,3b>8b[8:1]`8b<5b[8:1],,,,8bw4b[8:1],
,,,Cf,,,,7-3[8:1],,,,7/8,,1,
,8/2-5[8:1],,,,2/8,,7,,1b-4b[8:1]/6b-4b[8:1],,,,6b<1b[8:1]`1b>4b[8:1],,,,1bw5b[8:1],
,,,Cf,,,,8/1,,8,,7/2,,7,
,6/3,,6,,5/4,,5,,5/4,,4,,6/3,,3,
,7/2,,2,,8/1,,1,,4,5,4,5,4,5,4,
5,3,6,3,6,2,7,2,7,8/1-3[8:1],,,,1/7-5[8:1],,,,7/1,
,1,,8,8,8,8,1-3[8:1],,8,,7-5[8:1],,8,
,1-3[8:1],,8,,7-5[8:1],,8,,1-3[8:1],,8,,7,,8,
,4,{8}5,{16}5,4,,5/4,,2-4[8:1],,1,,8-6[8:1],,1,
,2-4[8:1],,1,,8-6[8:1],,1,,2-4[8:1],,1,,8,,1,
,5,{8}4,{16}4,5,,5/4,,8/1,,2,,8/1,,7,
,8/1,,3,,8/1,,6,,5/4,,2,,5/4,,7,
,5/4,,1,,5/4,,8,,2b,5,4,5,4,5,4,
5,1b,5b,4b,6b,3b,7b,2b,8b,1-3[8:1],,,,1/7-5[8:1],,,,7/1,
,1,,1,8,1,{2}8,
E
