&title=弹舌
&artist=赵小六
&first=0.01
&lv_5=1
&lv_6=1
&des_7=Æqual
&lv_7=?
&des=Æqual
&inote_7=(94){4},{1},{4},,,{16},Ch[16:3],
{96},,,,,,,,,,,,1/2,3/8,4/7,5/6,,,,,{3}2b/1b,{24},,,,,,,,,,,,,,,,,{8}B6/E7/B5/E3/B3/B4/Cfh[64:1],
{96},,,,,,,,,,,,1b/8b,2/7,3/6,4/5,,,,,,,,,1b/8b,2/7,3/6,4/5,,,,,,,,,1b/8b,2/7,3/6,4/5,,,,,,,,,1b/8b,
2/7,3/6,4/5,,,,,,,,,1b/2b,8/3,7/4,6/5,,,,,,,,,1b/2b,8/3,7/4,6/5,,,,,,,,,1b/2b,8/3,7/4,6/5,,,,,,,,,1b/2b,8/3,7/4,6/5,,,,,,,,,8b/7b,1/6,2/5,3/4,,,,,,,,,8b/7b,1/6,2/5,3/4,,,,,,,,,8b/7b,1/6,2/5,3/4,,,,,,,,,8b/7b,
1/6,2/5,3/4,,,,,,,,,1b/7b,6/2,5/3,4,,,,,,,,,1b/7b,6/2,5/3,4,,,,,,,,,1b/7b,6/2,5/3,4,,,,,,,,,1b/7b,6/2,5/3,4,,,,,,,,,8b/2b,3/7,4/6,5,,,,,,,,,8b/2b,3/7,4/6,5,,,,,,,,,8b/2b,3/7,4/6,5,,,,,,,,,8b/2b,
3/7,4/6,5,,,,,,,,,1b/7b,6/2,5/3,4,,,,,,,,,8b/2b,3/7,4/6,5,,,,,,,,,1b/7b,6/2,5/3,4,,,,,,,,,8b/2b,3/7,4/6,5,,,,,,,,,4b,3,2,1,,,,,,,,,5b/1b,6/2,7/3,8/4,,,,,,,,,5b/1b,6/2,7/3,8/4,,,,,,,,,5b/1b,
6/2,7/3,8/4,,,,,,,,,5b/1b,6/2,7/3,8/4,,,,,,,,,6b/2b,7/3,8/4,1/5,,,,,,,,,6b/2b,7/3,8/4,1/5,,,,,,,,,6b/2b,7/3,8/4,1/5,,,,,,,,,4b/8b,3/7,2/6,1/5,,,,,,,,,4b/8b,3/7,2/6,1/5,,,,,,,,,4b/8b,3/7,2/6,1/5,,,,,,,,,4b/8b,
3/7,2/6,1/5,,,,,,,,,3b/7b,2/6,1/5,8/4,,,,,,,,,3b/7b,2/6,1/5,8/4,,,,,,,,,3b/7b,2/6,1/5,8/4,,,,,,,,,3b/7b,2/6,1/5,8/4,,,,,,,,,2b/6b,1/5,8/4,7/3,,,,,,,,,2b/6b,1/5,8/4,7/3,,,,,,,,,2b/6b,1/5,8/4,7/3,,,,,,,,,2b/6b,
1/5,8/4,7/3,,,,,,,,,1b/5b,8/4,7/3,6/2,,,,,,,,,1b/5b,8/4,7/3,6/2,,,,,,,,,1b/5b,8/4,7/3,6/2,,,,,,,,,5b<8[0.3191##0.1596]/1b>4[0.3191##0.1596],8/4,7/3,6/2,{4},,{16},{64},,,{192},{96}3/5h[8:15],
2,1,{16}8,{96},,,8,1,2,{16}3,{96},,,3,2,1,{16}8,{96},,,8,1,2,{16}3,{96},,,3,2,1,{16}8,{96},,,8,1,2,{16}3,{96},,,3,2,1,{16}8,
{96},,,8,1,2,{16}3,{96},,,1b,8,7,{16}6,{96},,,6,7,8,{16}1,{96},,,1,8,7,{16}6,{96},,,6,7,8,{16}1,{96},,,1,8,7,{16}6,{96},,,6,7,8,{16}1,{96},,,1,8,7,{16}6,
{96},,,6,7,8,{16}1,{96},,,3/5h[32:13],2,1,{16}8,{96},,,8,1,2,{16}3,{96},,,3,2,1,{16}8,{96},,,8,1,2,{16}3,{96},,,6/4h[32:13],7,8,{16}1,{96},,,1,8,7,{16}6,{96},,,6,7,8,{16}1,
{96},,,1,8,7,{16}6,{96},,,3/5h[32:13],2,1,{16}8,{96},,,8,1,2,{16}3,{96},,,6,7,8,{16}1,{96},,,1,8,7,{16}6,{96},,,6/4h[32:13],7,8,{16}1,{96},,,1,8,7,{16}6,{96},,,3,2,1,{16}8,
{96},,,8,1,2,{16}3,{96},,,3/5h[32:5],2,1,{16}8,{96},,,8,1,2,{16}3,{96},,,6/4h[32:5],7,8,{16}1,{96},,,1,8,7,{16}6,,,,,,,{8}1<4[0##0.1596],
5-8-4-1[0##0.1596],6-8v1-3[0##0.1596],5-8>5[0##0.1596],{16},,,{96}8b/4b,3/7,2/6,{32}1/5,{96},,,,,,1b/5b,6/2,7/3,{32}8/4,{96},,,,,,8b/4b,3/7,2/6,
{32}1/5,{96},,,,,,1b/5b,6/2,7/3,{32}8/4,{96},,,,,,8b/4b,3/7,2/6,{32}1/5,{96},,,,,,1b/5b,6/2,7/3,{32}8/4,{96},,,,,,8b/4b,3/7,2/6,{32}1/5,{96},,,,,,1b/5b,6/2,7/3,{32}8/4,{96},,,,,,1b/5b,4/8,3/7,{32}2/6,{96},,,,,,2b/6b,7/3,8/4,{32}1/5,{96},,,,,,1b/5b,4/8,3/7,
{32}2/6,{96},,,,,,2b/6b,7/3,8/4,{32}1/5,{96},,,,,,1b/5b,4/8,3/7,{32}2/6,{96},,,,,,2b/6b,7/3,8/4,{32}1/5,{96},,,,,,1b/5b,4/8,3/7,{32}2/6,{96},,,,,,2b/6b,7/3,8/4,{32}1/5,{96},,,,,,8b/4b,3/7,2/6,{32}1/5,{96},,,,,,1b/5b,6/2,7/3,{32}8/4,{96},,,,,,8b/4b,3/7,2/6,
{32}1/5,{96},,,,,,1b/5b,6/2,7/3,{32}8/4,{96},,,,,,7b/3b,2/6,1/5,{32}8/4,{96},,,,,,8b/4b,5/1,6/2,{32}7/3,{96},,,,,,7b/3b,2/6,1/5,{32}8/4,{96},,,,,,8b/4b,5/1,6/2,{32}7/3,{96},,,,,,8b/4b,3/7,2/6,{32}1/5,{96},,,,,,5b/1b,2/6,3/7,{32}4/8,{96},,,,,,1b/5b,4/8,7/3,
{32}2/6,{96},,,,,,6b/2b,3/7,4/8,{32}5/1,{96},,,,,,2b/6b,5/1,8/4,{32}3/7,{96},,,,,,7b/3b,4/8,5/1,{32}6/2,{96},,,,,,3b/7b,6/2,1/5,{32}4/8,{96},,,,,,8b/4b,5/1,6/2,{8}7/3,{48}5/1,2,3,4,5,6,3/7,8,1,2,3,4,
5/1,6,7,8,1,2,3,4/7,5,6,7,8,5/1,2,3,4,5,6,3/7,8,1,2,3,4,1/5,6,7,8,1,2,7/3,4,5,6,7,8,{4}1b/5b,
{96},,,,,,,,,,,,,,,,,,,2/1,8/3,7/4,5h[12:1]/6h[12:1],,,,,,,,,4,3,{48}2bh[16:3],{96},,,,7,8,{12}1bh[48:5],{96},,,3b/8b,4b/7b,6b/5b,
E
