&title=Second Heaven
&artist=Ryu☆
&first=0.03
&des=617☆
&lv_5=13.7
&inote_5=(149){4},,,,{8}C,
2-6[4:1]/4V68[4:1],{4},,,{8}6,
{16}4,5,{8}2,{16}5,4,{8}7,{16}3,4,{8}2,{16}6,5,
{8}7,{16}4,5,{8}3,{16}5,4,{8}6-2[16:1],4-8[16:1],{4},{8}7,
{16}1,8,{8}3,{16}8,1,{8}6,{16}2,1,{8}3,{16}7,8,
{8}6,{16}1,8,{8}2,{16}8,1,{8}7-3[16:1],1-5[16:1],{4},{8}6h[8:1],
{4},{16}5h[16:1],B7,{8},{16}5h[16:1],C,{8},5h[16:1],
4h[8:1],{4},{16}B7,C,{8},{16}B2,B7,{8},5,
4h[8:1],C,,{16}B2,B7,{8}5h[8:1],{4},{16}E2,B8,
{8}4h[8:1],{4},{16}B7,B6,{8},{16}B5,B4,{8},{16}B3,B4,
{1}5x-8[8:13]/4x-1[8:13],
,{8}3,
2<7[8:1],3,2,,3<6[8:1],2,3,
,2,8/1-5[8:1],2,1/8-4[8:1],7,8/1,2,
,7>2[8:1],6,7,,6>3[8:1],7,6,
8,5,7-5[8:1],5-3[8:1],3-1[8:1],1-5[8:1],,B3/B4/E4,
,2<7[8:1],3,2,,3<6[8:1],2,3,
,2,1-5[8:1],2-4[8:1],1-7[8:1],2-6[8:1],{4},{8},2<7[8:1],
3,2,,3<6[8:1],2,3,
1,5,2-4[8:1],4-6[8:1],6-8[8:1],8-4[8:1],,5,
,3,2,1h[4:1],,4,5,6h[4:1],
,4,3,2,1,2,1,2,
,7,5,8,,7,4,6,
{1}1<1[8:5]*v3[8:5],
8>2-6>4-8[8:5],
7-1-4[8:5],
{2}6>2v4[8:1],5-3-1[8:1]*-7[8:1],
{4}A4f,7bq3[16:1]/3bq7[16:1],,1b,
{2}1bw5[32:7],Cf/B6/B5/B4/B3/B2/B1/B8/B7/E8/E7/E5/E1/E3/E2/E6/E4,
{8}7/3,{16}5,4,6,3,7,2,{8}8-4[16:1]b,2b,,{16}2,3,
{8}1,{16}4,3,{8}7,{16}4,5,{8}4bh[1:0]/3bh[1:0],6bh[1:0]/1bh[1:0],4bh[1:0]/3bh[1:0],6bh[1:0]/1bh[1:0],
2b,{16}4,5,1>4[16:1]b,6,1<6[16:1]b,5,{8}1b-5[16:1]b,{4},{16}8,2,
{8}1b,2b/8b,3b/7b,2b/8b,{4}1b,Cf,
{8}2/6,{16}4,5,3,6,2,7,{8}1b-5[16:1]b,8b,,{16}4,3,
{8}7,{16}4,5,{8}1,{16}6,3,{8}5bh[1:0],1bh[1:0],7bh[1:0],3bh[1:0],
8b,{16}7,1,6-8[16:1]b,2,6-1[16:1]b,3,{8}6b-2[16:1]b,{4},{16}3,4,
{8}8b/7b,7,8b/1b,8,{4}1b/2b,Cf,
{8}2h[4:1],5,5,5,3h[4:1],6,6,6,
2h[4:1],7,7,7,{4}2h[8:1]/7h[8:1],3h[8:1]/6h[8:1],
{8}7h[4:1],4,4,4,6h[4:1],3,3,3,
7h[4:1],2,2,2,{4}3h[8:1]/6h[8:1],4h[8:1]/5h[8:1],
{8}7q4[8:1],5,7,5,6q3[8:1],5,6,5,
2p5[8:1],4,2,4,3p6[8:1],4,3,4,
2>5[8:1],1,2,8,6<1[8:1],4,6,5,
{4}8p3[8:1],8,4p7[8:1],4,
{8}8/3,{16}1,2,{8}1,{16}3,4,{8}3,{16}6,5,{8}6,{16}4,5,
{8}4,{16}4,2,{8}3,{16}5,7,{8}6,4-8[16:1],{4},{8}1/7,
{16}3,4,{8}3,{16}3,5,{8}3,{16}3,6,{8}3,{16}3,5,
{8}3,{16}3,4,{8}3,{16}3,4,{8}3,3-7[16:1],,,
{8}1,2/6,,E8,,E7,,E6,
2/8,3/7,,E5,,E4,,E3,
1/8,2/7,,E2/E8,1/8,2/7,,E6/E4,
8v6[2:1]/4v2[2:1],6/2,{4},,,{8}4/6,
{16}5,4,6,3,7,2,{8}1bh[1:0],2,8bh[1:0],{16}5,7,
{8}6,{16}4,5,{8}1bh[1:0],{16}5,4,{8}7bh[1:0],8/6,4/2,7/5,
1bh[1:0],{16}4,5,3,6,2,7,{8}8bh[1:0]/1bh[1:0],2/7,1/8,{16}7,2,
{8}5,4,6bh[1:0],3,{4}7b/2b,Cf/B8/B7/B6/B5/B4/B3/B2/B1/E4/E5/E6/E7/E8/E1/E2/E3,
{8}2/5,{16}3,4,2,5,1,6,{8}8/7,6/1,7/8,{16}6,1,
{8}7,{16}8,7,1,6,2,5,{8}3/4,2/5,3/4,{16}3,4,
{8}2,{16}6,4,{8}7,{16}3,5,{8}2,{16}6,4,{8}7,{16}5,4,
{8}7/2,3,4,5,{16}6/2,7,8,1,2,3,4,5,
{1}6b<2[2:3]/2b>6[2:3],
,{8}6/3,
{16}4,5,3,6,2,7,{8}1b-5[16:1]b,7b,,{16}4,2,
{8}3,{16}4,5,{8},{16}1,6,{8}8b/7b,6b/1b,8b/7b,6b/1b,
2b,{16}5,6,4,7,3,8,{8}2b,1b,3b,{16}8,4,
{8}2b,5b,7b,2b/6b,{2}5b>2[8:1]/1b<6[8:1],
{8}1b,2,{16},,{32},1,2,3,{8}4,5,4b,5,
4b,5,{32}4b,3,2,1,{24}8bh[48:1],7h[48:1],6h[48:1],{8}5h[48:1],4,5b,4,
5b,4,{32}5b,6,7,8,{24}1bh[48:1],2h[48:1],3h[48:1],{8}4h[48:1],8,{32}4,3,2,1,{24}8bh[48:1],7h[48:1],6h[48:1],
{8}5b,8b,1b,4b,{2}B8/B1/B5/B4,
{1}E2f,E
