&title=crystallized
&artist=かめりあ
&first=0
&des=differ
&lv_5=14
&inote_5=(174)
{1},,,
{8}1xV35[1:1]`4xv2[1:1],,,,,,,,,,,,,,,,4h[1:1]/6h[2:3],,,,,,,,,,,,E4,,,,
2xV46[1:1]`5xv3[1:1],,,,,,,,,,,,,,,,4h[1:1]/6h[1:1],,,,,,,,,,,,,,,,
2xb,4,3h[8:3],,,6,5,,7,4/6h[4:1],,5,,3,2/5xb,,7xb,5,6h[8:3],,,5<2[2:1],4,,
3,3h[4:1],,,,4,3,,
5h[4:1],,4,3h[4:1],,5,6h[4:1],,
1,2h[4:1],5,6,7h[4:1],3,4h[4:1],,
{16}1,4,1,4,8,4,8,4,7,3,7,3,6,2,6,2,
{32}5h,4x,3x,2x,1x,8x,7x,6x,5x,4x,3x,2x,1x,8x,7x,6x,5x/1-5[8:1],,,,,,,,,,,,,,,,
{16}4b/8b,,,,5qq2[8:3],,,,8,,7,,6,,,,5h[4:1],,,,,,2h[4:1]/8h[4:1],,,,,,6h[4:1]/1h[4:1],,,,
,,,,4,,3V51[4:1],,8,,7,,6,,,,
2h[4:1]/8h[4:1],,,,,,6h[4:1]/5h[4:1],,,,,,3h[4:1]/5h[4:1],,,,,,,,34,,8-4[8:1],,2b,,8b,,
{24}3b,2,1,8,,,
{16}5h[4:1],,,,,,2h[4:1]/4h[4:1],,,,,,7,1,7,1,7,1,7,1,7,1,7,1,7,1,7,1,7,1,7,1,7,1,7,1,7,1,7,1,7,1,7,1,
{8}6>4[8:1],,E3,,2,4,,3,4>2[8:1],,E6,,7,5,,6,2<8[8:1],,E7/E8,,6,8,,7,8<6[8:1],,E2/E3,,3,1,,2,35,,
54,6,72,8,84,3,27,1,81,7,63,5,3,2,7,8,
{16}2,1,3,8,4,7,5,6,
{32}1,2,3,4,5,6,7,8,1,2,3,4,5,6,7,8,1bV35[2:1]`1!V72[2:1],,,,,,,,,,,,,,,,,,,,,,,,,,,,,,,,
{16}8h[4:1],,,,2,,6,,1>3[8:1],,,,1,,4,,2-6[8:1],,2,,7-4[8:1],,7,,1,,2,,5,,46,,
7-5[8:1],,,,4v6[8:1],,3,,2,,,,1-3[8:1],,3-5[8:1],,,,,,1,8,7,6,1,2,3,4,
{32}8bx,E8,E7,E6,,,,,
{16}
6h[4:1]x,,4,,3,,2-8[8:1],,,,2,,7-5[8:1],,1,,7,,4-7[8:1],,,,1,,2-5[8:1],,,,21,,8,,
7s3[4:1],,,,3b,,,,2,,1,,8V25[4:1],,6,,6b-8[8:1],,,,6,,3-5[8:1],,5-2[8:1],,3,,,,,,
7h[4:1],,1,,2,,3-5[8:1],,,,3,,6-8[8:1],,,,6,,1-5[8:1],,,,1,,7-4[8:1],,7,,3,,2,,
1h[8:1],,7,,6h[8:1],,4,,35,,2,,17,,6,,3,,18,,7,6,5,4,1,2,3,4,
{24}1x/5x,4x/8x,3x/7x,2x/6h[8:1]x,,,
{16}2b,,,,
6-4[8:1],,3,,,,2-5[8:1],,4,,,,8-6[8:1],,4,,8,,4z8[4:1],,5,,,,6bV82[4:1],,,,2>6[4:1],,,,6x<3[4:1],,,,3x<8[4:1],,,,8x,,,,2x,,8x,,3,,75,,6b-2[8:1],,,,,,,,
1bs5[8:1],,,,,,,,8,1,2,3,4h[8:1],,1,2,3,4,5h[8:1],,2<6[4:1],3,4,5,6V48[4:1],,,,8w4[4:1],,,,,,,,,,,,
2-6[8:1]/6-2[8:1],,,,,,,,8-4[8:1]/4,,,,8,,3,2,1V73[4:1]/5,,6,,1,,,,
4bV68[8:1]*V28[8:1],,,,,,,,
1,2,3,4,5h[8:1],,8,1,2,3,4h[8:1],,7v8V64[8:3],8,1,2,3/7,,4x,3x,2x,1x,8x,,
8w4[8:1],,,,,,,,6h[8:1],,3h[8:1],,8h[8:1],,5h[8:1],,1>4[8:1],,8,,7,,6<1[8:1],,5,,4,,
2,3,4,5,2-5-8-6[4:1],,,,,,,,1,2,3,4,5h[8:1],,1,8,7,6,5h[8:1],,8,1,2,3,6b,,6,4b,,4,
{24}8b,7,6,5-1[8:1]/3,2,1,8,,,5,,,,,,
{16}2,,53,,64,,75,,8bv7[8:1],,5,,,,4,3,2-5[8:1]/6-1[8:1],,,,26,,,,
{24}4V61[4:1],3,2,1/7,6,5,4b,,,,,,
{16}2,2,1,3,8h[8:1],,4,7,3,6,2h[8:1],,6v7V58[8:3],5,7,,6,,,,,,,,
1,,7,,6,,5,,24,,35,,46,,7,,
{24}2,3,4,5,6,7,8,1,2,3,4,5,
{32}6h,7x,8x,1x,2x,3x,4x,5x,6x,7x,8x,1x,2x,3x,4x,5x,
{8}6b,,,,,,,,,,,,,,3b,,4b,,,,,,,,,,,5b,,,4b,,
{8}6b,2,7,3,8,4,1,5,8,8,2,2,4,4,6,6,
{16}7,5,7,5,6,4,6,4,5,3,5,3,4,2,4,2,
{32}5,6,7,8,1,2,3,4,5,6,7,8,1,2,3,4,
{24}5xh,6xh,7xh,,1xh,,3xh,,,6xh,,,
{24}1,2,3,4h[8:3],,,
{16}1qq6[8:3],,,,1,,3,,2,,,,
{24}2,3,4,5h[4:1],,,,,,7,6,5,4h[4:1],,,,,,1,2,3,4h[8:3],,,,,,,,,
{16}3qq4[8:2],,4,,5,,6,,7,,,,
{24}8,7,6,5h[4:1],,,,,,8,1,2,3h[4:1],,,,,,7,6,5,4h[8:3],,,,,,,,,
{16}5-3[8:1],,2-4[8:1],,5V71[16:3],,2,,5,,,,
{24}2,3,4,5h[4:1],,,,,,1,2,3,4h[4:1],,,,,,8,1,2,3,4,5,6,7,8,1,2,3,4h[8:1],,,
{16}5,6,74,3,2,1,7,6,5,4,1b-5[8:1],,,,7s3[4:1],,7,,,,,,2-4[8:1],,,,
5,,,,6,,,,6,,5,,7-1[8:1],,,,2,,,,3,,,,3,,5,,4-6[8:1],,,,
4/7,,,,8,,,,7,,1,,8-4[8:1],,,,
38,,,,2,,,,3,,5,,2-5[8:1],,,,26,,7,,8,,4,,35,,2,,1,,6,,17,,2,,28,,7,,17,,3,,28,,6,,
2,4,3,5,4,6,5,7,
{32}A4,A3,A2,A1,A8,A7,A6,A5,A4,A3,A2,A1,A8,A7,A6,A5,
{32}A4/E4f/A3/1xV75[8:3],,,,,,,,8xv6[4:1],,,,,,,,,,,,,,,,,,,,,,,,
{16}35,,2,,46,,7,,3,4,3,4,1,,2,6,3,5,3h[8:1],,6,5,7h[8:1],,
{24}1,2,3,4h[8:1],,,1,8,7,6h[8:1],,,
{16}4,,2,,6,5,6,,3,,8,,2,4,2,4,
{24}1,2,3,4h[8:1],,,7,6,5,4h[8:1],,,
{16}1,,2xh[4:1],,
{48}5bx,D5,A4,D4,A3,D3,,D2,A1,D1,A8,D8,
{16}2/A7,,3,,47,,6,,3,4,2h[8:1],,7,1,6,2,
{24}8,7,6,5h[8:1],,,8,1,2,3h[8:1],,,
{16}5,3,5,4,6,5,6,5,
{24}7xh,6xh,5xh,1xh,2xh,3xh,
{48}E1,E8,E7,E6,,,,,,,,,
{16}A2/E3/E2,,A4/E4/E5,,
{24}8,7,6,5h[8:1],,,
{16}4,6,4,5,3x,4x,2x,,
{24}8x,7x,6x,2x,3x,4x,1x,8x,7x,,,,
{16}64,,7,,53,,2,,6,5,6,5,8,,7,3,6,4,6h[8:1],,3,4,2h[8:1],,
{24}8,7,6,5h[8:1],,,8,1,2,3h[8:1],,,
{16}5,,7,,3,4,3,,6,,1,,7,5,7,5,
{24}8,7,6,5h[8:1],,,2,3,4,5h[8:1],,,
{16}8,,7xh[4:1],,
{48}4bx,D5,A5,D6,A6,D7,,D8,A8,D1,A1,D2,
{16}7x/A2,,6,,5x/2,,3,,6x,5,7h[8:1],,2x,1,3,8,
{24}2,3,4,5h[8:1],,,7,6,5,4h[8:1],,,
{32}1,2,3,4,5,6,7,8,
{64}A1/6b,D2,A2,D3,A3,D4,A4,D5,,,,,,,,,
{8}A8,A7,A6,A5,A4/B4,A3/B3,A2/B2,A1/B1,
{32}E8,A7,E7,A6,E6,A5,E5,A4,E4,A3,E3,A2,E2,A1,E1,A8,
{16}4bs8[8:1]`4!z8[8:1],,,,,,,,
{24}2b,3x,4x,5x-3[8:1],,,7-4[8:1],,,5,,,7,,,1,,,2-5[8:1],,,,,,
5,,,6,,,,,,3,,,2>5[8:1]/5<8[8:1],,,,,,,,,,,,1h[4:1],,,,,,
4h[8:1],,,6h[8:1],,,2h[8:1],,,5,,,34,,,1,,,6xh,,,7xh,,,
{16}E4,E3,E2,,E8,E7,E6,,
{32}A4/D4,A3,A2,A1,,,,,
{24}7b,6x,5x,
{16}4x-8[8:1],,2-5[8:1],,4,,2,,7,,6<1[8:1],,,,26,,3,,,,7,,6-8-5-2[8:3]/2,,,,6,,3,,
1h[4:1],,,,
{48}A4,D5,A5,D6,A6,D7,A7,,,,,,
{16}E3/B2/A2,,E8/B8/A8,,5,,5,,7bp3[8:1]*q3[8:1],,,,,,,,E1,,E7,,
{24}A2,A3,A4,A5,,,
{24}7b,,,4bx-6[8:1],,,2b-5[8:1],,,4b,,,2,,,8,,,7-4[8:1],,,,,,
4,,,3,,,,,,6,,,4>1[8:1],,,7<4[8:1],,,,,,,,,1xh[4:1],,,,,,
5h[8:1],,,3h[8:1],,,7h[8:1],,,4,,,65,,,8,,,3xh,,,2xh,,,
{16}A5,E6,E7,E8,A1,E2,E3,E4,
{32}A8/D8,A7,A6,A5,,,,,
{16}2<7[8:1]/4,,3,4,2>5[8:1],,6-1[8:1],,2,,6,,4,,7,,3/8-4[8:1],,1,2,8,,2,,
{24}2,3,4,5,6,7,2,3,4,5,6,7,
1bx,2x,3x,4x/7,,,7xb,6x,5x,4x/2,,,2bx,3x,4x,5x/6x,7x,8x,2bx,3x,4x,5x/6x,7x,8x,
{32}1b,2,3,4,5,6,7,8,1b,2,3,4,5,6,7,8,1bs5[4:1],2,3,4,5,6,7,8,,,,,,,,,
{8}7xb,4,6h[8:3],,,3,4,,2,5/3h[4:1],5,6,,6,7/4xb,,
2xb,5,3h[8:3],,,6,5,,7,4/6h[4:1],4,3,,3,2/5xb,3,
7xb,4,6h[8:3],,,3,4,,2,5/3h[4:1],5,6,,6,7/4xb,,
2xb,4,3h[8:3],,,4>7[2:1],5,,
6,6h[4:1],,,,5,6,,
4b,,,,,,,,,,,,,,E7,,E6,,,,,,,,,,,E3,,,E5,,E4,,,,,,,,,,,,,,E8,,E7,,,,,,E3,,E4,
