&title=amygdata
&artist=nitro
&first=0.035
&des=The Shining
&lv_5=14
&inote_4=(154)
{32}7h[8:1],,,,1b,2b,3b,4b,
{16}6,5,6,,7,,7-4[8:1]/4-1[8:1],,,,
{8}4bqq8[8:17]/7b,,,,,,,1b>8[8:10],,.,,,,,,,,,,,,
{4}7qq4[4:3],2,2,2,1>4[4:1],7,1<6[4:1],3,
2qq7[4:3],5,5,5,4<7[4:1],2,4>1[4:1],6,
5pp8[4:3],2,2,2,1pp4[4:3],6,6,6,
5<3[4:3],4h[8:1],4h[8:1],4h[8:1],4h[8:6],2z6[4:1],,,
{8}7/4,7/4,7-4[8:1]/4,,
7qq1[16:5]/4,,2-5[8:1],3,2,,
{24}7,6,5,4,3,2,
{8}1/5h[4:1],,{12}6,7,8,5V31[16:3],6,7,
{8}5,,7-4[8:1],4<2[4:1],7,3,3q7[8:1]*v8[8:1],,,,
{24}2/6,3,4,{8}5p8[4:1],,7h[8:3],,,
{20}2,6,2,6,2,{8}5<8[8:1],,1qq8[16:3],2,3,,
5-3[8:1]*-7[8:1],,5,,
{12}1,2,3,8V64[16:3],1,2,
{8}8,,2-5[8:1],5>7[4:1],2,6,6-3[8:1]*v1[8:1],,,,
{24}7/2,6,5,{8}4q1[4:1],,2h[8:3],,,,,1-5[8:1],,,,
{32}6-4[8:1]/4,7/3,2/8,1,
{8},2-4[8:1]*-8[8:1],,2,,{12}4,3,2,5V71[16:3],4,3,
{8}5,,2-5[8:1],8-4[8:1],2,8,
{12}1h[384:1],1h[384:1],1h[384:1],6h[384:1],6h[384:1],6h[384:1],
{32}2V48[4:1],3,4,5,6,7,8,1,
{8}2,5h[4:1],,,{20}1,5,2,6,3,
{8}7V51[4:1],,2-4[8:1],1,2,,7-1[8:1]*-5[8:1],,7,,
{12}4,5,6,3V17[16:3],4,5,
{8}3,,4-8[8:1],1-3[8:1],4,1,7bw3[8:1],,,,1>4[8:1]/5-1[8:1],,1/5,,
{16}5,1,4,8,3,7,2,6,{8}1-4[8:1],,1,
{16}6-1[8:1],5,7,,6,,
{24}2>8[4:1],3,4,
{8}5h[8:1],2,,1,{16}3-8[8:1],4,2,,3,,
{24}7<1[4:1],6,5,
{8}4h[8:1],7,,8,
{24}3,4,5,7h[8:1],,,3-6[8:1],2,1,6-4[8:1],,,3,,,8h[4:1],,,,,,
{16}3v8[8:1],7,2,6,3,,
{24}7,6,5,
{16}4q8[8:1]/3,,2,,3/4,,,,4v1[8:1],,3,5,4,,
{24}8,7,6,
{16}5q1[8:1]/4,,3,,4/5,,,,2-5[8:1],,3,4,2,,7,7,4,6,3,5,
2,7,5,6,3h[8:1],,
{24}8,7,6,5/4h[8:1],,,7,6,5,
{8}4-1[8:1]*v7[8:1]/3,2,4,
&inote_5=(154)
{8},,,,,
(154)
{16}7h[8:1],,
{24}2b,3b,4b,
{16}6b,5b,6b,,7b,,7-4[8:1]/4-1[8:1],,,,
{8}4bqq8[8:17]/7b,,,,,,,1b>8[8:10],,.,,,,,,,,,,,,
{16}B8/B2/B4/B6/C,,,,
,,,,
,,,,
,,,,
{16}B7,,,,
,,,,
E4,,,,
,,,,
{16}8<3[8:6],,,,
,,,,
,,,,
,,,,
{16}B2,,,,
,,,,
E6,,,,
,,,,
{16}5h[4:3]/2,,,,
3,,,,
4h[4:1],,,,
,,,,
{16}7h[4:3]/4,,,,
5,,,,
6h[4:1],,,,
,,,,
{16}2h[4:1]/7,,,,
1,,,,
6h[4:1]/3,,,,
5-1[8:1],,,,
{16}5z1[2:1]`7-3-7b[2:1],,,,
,,,,
,,,,
,,,,
{8}7/4,7/4,7-4[8:1]/4,,
7b/4V61[16:5],,2-5[8:1],3,2,,
{24}7,6,5,4,3,2,
{8}1/5bh[4:1],,{12}6,7,8,5V31[16:3],6,7,
{8}5,,7-4[8:1],4<2[4:1],7,3,3q7[8:1]*v8[8:1],,,,
{24}2/6b,3,4,{8}5p7[4:1],,6h[8:3],,,
{16}8>3[8:1],6,8,6,
{8}8b,,4,3/5,
2V84[4:1]/6,,5-7[8:1],,
5b,,{12}3,2,1,4V68[16:3],3,2,{8}4,,
{8}2>4[8:1],4<6[8:1],6<8[8:1],8>4[8:2],Cf,,,,
{8}3hx[16:4]/4hx[16:4],,,7hx[16:4]/8hx[16:4],
,,{16}6<5[8:3]/5,,,,
{8},,,,
1b>4[8:1],,
{24}5-1[8:1],6,7,8,,,
{8}5b,,{12}5,6,7,4>2-8[16:3],5,6,{8}4,,
{8}4-7[8:1],1-4[8:1],4-2[8:1],1,
{12}6,6,6,2,2,2,
{24}7b/3,6,5,{8}4q8[16:3],,3h[8:3],,,{20}6,5,6,3,4,
{8}2hb[4:1],,1,2/8,
3V14[4:1]/7,,8-5[8:1],,
8b,,
{12}4,3,2,5<7-1[16:3],4,3,{8}5,,
{8}2h[8:1],5h[8:1],3h[8:1],7h[8:1],
{20}1h[384:1],,1h[384:1],,1h[384:1],,1h[384:1],,1h[384:1],,
{8}1bs5[16:3],,,,
{16}7,4,6,2,4,1,8,2,
7b-3[8:1],,,,
{16}7,,2,2,4<7[8:1],,4,,
{24}1-5[8:1],2,3,4,,,
{16}1>4[8:1],,,,
1,,6,5,7<4[8:1],,7,,
{24}3V57[16:3],2,1,8,,,
{16}3,,,,
1,,
{24}3,4,5,7h[8:1],,,3-6[8:1],2,1,6-4[8:1],,,3,,,8h[4:1],,,,,,
{16}3v8[8:1],7,2,6,3,,
{24}7,6,5,
{16}4q8[8:1]/3,,2,,3/4,,,,2,,3,5,4h[8:1],,
{24}8,7,6,
{16}5-1[8:1]/4,,3,,4/5,,,,2-5[8:1],,3,4,2,,7,7,4,6,3,5,
2,7,5,6,3h[8:1],,
{24}8,7,6,5/4h[8:1],,,7,6,5,
{8}4-8[8:1]*-7[8:1]/3,2,4,,
{16}1,,6,6,2,,{32}8x,7,6,5,
4,3,2,1,8,7,6,5,
4b/2b-6[8:1],,,,,,,,
{16}2,,7,7,5>2[8:1],,5,,
{24}8-4[8:1],7,6,5,,,
{16}8<5[8:1],,,,
8,,3,4,2>5[8:1],,2,,
{24}6V42[16:3],7,8,1,,,
{16}6,,,,8,,
{24}6,5,4,2h[8:1],,,6-3[8:1],7,8,3-5[8:1],,,6,,,1h[4:1],,,,,,
{16}6v1[8:1],2,7,3,6,,
{8}2x-8<5[16:3],,,3hb[8:2],,{16},,6,4,5h[8:1],,
{24}1,2,3,
{16}4-8[8:1]/5,,6,,5/4,,,,7-4[8:1],,6,5,7,,2,2,6,4,7,3,
{24}8,7,6,2,3,4,7h[8:1],,,3,4,3,5,,,7,6,7,5,,,1,,,
{16}2b/8b,,,,
6,5,6,5,
7,5,8,5,
{24}1,2,3,4,5,6,
{16}3/7b-4b[8:1],,,,
7/4V61[16:3],,,,
2xb,,2h[2:1],,,,
{16}7-5[12:1],,5-1[8:1],,
7,,1xbV37[16:3],,
,,4,,4x,,
{48}A3,D4,A4,D5,A5,D6,A6,,,,,,
{16}8,,2-6[8:1],2,
1,1,2xbv4b[8:1]*v8b[8:1],,,,
{16}C,,,,
7h[8:1],,5h[8:1],,4h[8:1],,3,,3xb<6[16:1],,
{32}7h[384:1],8h[384:1],1h[384:1],2h[384:1],
{16},,,,1,,
2xb,,5h[16:5],,,,
{16}2,2V48[16:3],,,
2xb,,8V62[16:3],,
,,5xb,,
5,,
{16}7v1[8:1],,,,
7-3b[8:1],,4,,
7xb,,1-5[8:1],,,,
{16}1?>5[8:1]`1xb<5b[8:1],,,,
,,,,
3b/7b,,,,
{32}1bx/5bx,2x/6x,3bx/7bx,4x/8x,
{16}5bq7b[2:3]`1bq3>5[1:3],,,,
,,,,
,,,,
,,,,
{16},,,,
,,,,
,,,,
,,,,
{16},,,,
,,,,
,,,,
,,,,
{16}4,,,,
,,,,
3,,,,
,,,,
{16}4h[4:3]/2,,,,
3,,,,
5-3[8:1],,,,
,,,,
{16}6h[4:3]/4,,,,
5,,,,
7-5[8:1],,,,
,,,,
{16}4h[4:1]/8h[4:1],,,,
,,,,
{32}6xbv3[16:1],3xbv6[16:1],5xb,4xb,
{16},,,,,,
1>4[8:1]`5<8[8:1],,,,
1-6[8:1]`5v2[8:1],,,,
1b/5b,,,,7b/3b,,,,
{16}
5V71[16:3]/3,,,1-5[8:1],5,,2,,3-7[8:1],,,,
3,,5,5,1V35[16:3],,,5-1[8:1],1,,6,,7-4[8:1]*-3[8:1],,,,7,,,,
1<6[8:1]/2,,,3,1,,2,,8>3[8:1]/7,,,6,8,,7,,
{24}8b,1,2,3,4,5,8bv3[8:1],1,2,3,4,5,
{8}8b,,1/7,
{16}3,4,
{16}2>4-6[16:3],,,6-2[8:1],2,,7,,8-4[8:1],,,,8,,2,2,
7<5-3[16:3],,,3-7[8:1],7,,2,,1-5[8:1]*-6[8:1],,,,1,,,,
8/7bv6-4[16:3],,,1h[384:1],,,2h[384:1],,
3bv2-8[16:3],,,5h[384:1],,,6h[384:1],,
7b,,3,2/4,,6,5/7,,
{32}1,2,3,4,5,6,7,8,1,2,3,4,5,6,7,8,
{16}1bh[16:8]/5b,,,,
,,,,
B8,E3,{32}E7,E6,E5,,{16}B1f,,,,
{16}7h[8:1]/8h[8:1],,,1h[8:1]/2h[8:1],,,3/4,,6bv3[8:1]/5bv3[8:1],,,,C,,,,
8>3[8:1]/7,,,6,8,,7,,1<6[8:1]/2,,,3,1,,2,,
{24}1b,8,7,6,5,4,1bv6[8:1],8,7,6,5,4,
{8}1b>2[32:1]*>3[32:2]*>4[32:3]*>5[32:4]*>6[32:5]*>7[32:6]*>8[32:7],,
{32}E2,E3,E4,E5,E6,E7,E8,,
{16}2x-5[8:1],,,1,
2,,6,,
8>3[8:1]/7,,1,,
7/8,,6,5,
{16}7-4[8:1],,,8,
7,,3,,5b-1[8:1]/2b-5[8:1],,,,5b/2b>1[8:6],,,,
{8}2b,,,{16}2,2,{8}2h[2:1],,,,
{24}6,5,6,{16}4h[384:1],7h[384:1],
{24}3,4,3,{16}5h[384:1],2h[384:1],
{24}8,1,8,{16}2h[384:1],7h[384:1],
{16}1w5[8:1],,,,
{8}B5f/E5/B4/E6/B6/E4/E7/A4/A6,,7pp4[2:1],6,7/5,,3-8[8:1],,3<5V71[2:1],,
{10}3xh[384:1],2xh[384:1],1xh[384:1],4xh[384:1],3xh[384:1],
{16}2h[12:3],,,,
{6}6h[6:1],4h[6:1],7,
{16}7-3[8:1]*<6-4[8:1],,,,,,,,
{24}2b/8h[4:1],3,4,5,,,
,,,6b/8h[4:1],5,4,
{24}3,,,,,,
{20}1,4,1,4,1,
{16}5b-1[32:3],,,,
,,2,,
4-1[8:1]/8-5[8:1],,,,
,,,,
{8}6>4V28[2:1],,
{10}6xh[384:1],7xh[384:1],8xh[384:1],5xh[384:1],6xh[384:1],
{16}7h[12:3],,,,
{6}3h[6:1],5h[6:1],2,
{16}2b-6[8:1]*>3-5[8:1],,,,,,,,
{24}7b/1h[4:1],6,5,4,,,
,,,2b/8h[4:1],3,4,
{24}5,,,,,,
{16}7,3,6,2,5-8[8:1],,,,
{16}5,,3,3,1<6[8:1],,1,,{24}5-1[8:1],4,3,2,,,
{16}5>3-1[4:1],,,,
{10}8xh[384:1],7xh[384:1],6xh[384:1],5xh[384:1],5xh[384:1],
{24}2<4[16:5],3,4,5,,,
{6}2x,3xh[384:1],2xh[384:1],{8}4-6<7[8:1]/1xh[384:1],,
{12}2,2,2,
{24}1b/3bh[4:1],8,7,6,,,
,,,8b/2bh[4:1],7,6,
{16}5,,,,
{20}8,5,8,5,8,
{16}4-1[8:1],,,,
{16}4,,6,6,8>3[8:1],,8,,
{24}4-8[8:1],5,6,7,,,
{16}4<6-8[4:1],,,,
{10}1xh[384:1],2xh[384:1],3xh[384:1],4xh[384:1],4xh[384:1],
{24}7>5[16:5],6,5,4,,,
{6}7x,6xh[384:1],7xh[384:1],
{14}8xh[14:1],2xh[14:1],4xh[14:1],3xh[14:1],6xh[14:1],5xh[14:1],7xh[14:1],
{16}5b-1[8:1],,,,
,,,,
{16}7,2,8,1,{20}6,5,7,3,4,
{16}2b<3q4[1:3],,,,
,,,,
,,,,
,,,,
{16},,,,
,,,,
,,,,
,,,,
{16},,,,
,,,,
,,,,
,,,,
{16}C,,,,
,,,,
B5,,,,
,,,,
{16}B1,,,,
,,,,
B7,,,,
,,,,
{16}E4,,,,
,,,,
E6,,,,
,,,,
{16}E8,,,,
,,,,
E2,,,,
B6,,,,
{16}C,,,,
,,,,
,,,,
,,,,
