&title=戀の歌
&artist=白鸟小鸟 (CV: 伊藤彩沙)
&first=0
&des=SniperPigeon
&wholebpm=110
&clock_count=4
&lv_5=12
&inote_5=(110)
{1},,
{4}C/4xh[4:3],B5,E7,B8,
{4}8h[4:2],{8}3,2,1w5[8:1],,1,,
{8}2,3,4pp4[4:1],5,4qq4[4:1],,,,
6,7,8-4[8:1],1,82,,25,36,4qq4pp4[4:2]/7h[4:2],,{2},{8}8-4pp5[4:3]*-4qq3[4:3],8,
{1}8,
{8}8p5[4:1],1,2,3,4qq4[4:1],,4pp4[4:1],,
7,7,8,1,1<5[4:1],,5,4,
3pp4>8[4:2],,B7,,C,,5^2q6[4:2],,
{1}C,
{8}2-5[8:1],2,6pp4[4:1],6,3qq5[4:1],,,,
6,7,8p4^7[8:3],4,3,,3,2,
1h[4:2],,B6,,B3,,1-5qq4[4:3]*-5pp6[4:3],5,
{1}5,
{8}6,6h[8:3],5,4,3^8q4[8:3],,5,6,
7,8x,8h[4:1],B4,B2,,8^5[8:1],4,
4>8[4:1],,8<8[4:2],,C,,E7,,
{2}Ch[4:2],{4},{8}3,2,
{8}1V35-1[4:2],,,7,1V35[4:1],,,7,
8-4-7[4:1],4,3,2,1h[4:1],,6,7,
8q5^8[4:2],,,1,8q5[4:1],,,2,
1-5[8:1],1,6,7,8h[4:1],,3,2,
1-5V31[4:2],,,8,1-5[4:1],,,6,
7,7h[4:1],4^1[8:1],4,8^5[8:1],8,3,2,
{4}1h[4:3],E7/B6/B7,E3/B3/B2,E6/B6/B5,
{8}1b/Cf,,,4,3,2,1w5b[8:1],73,
1,,6,7,8-3[8:1],2,8-5[8:1]/6,7,
8/2V48[4:1],,,6,7-4[8:1],6,7/2-5[8:1],3,
8-4[8:1],8,1-5[8:1],1,
6^1p5[4:1],6,4,4,
4bx-1[8:1],3,4-7[8:1]/6,5,4/2-6[8:1],,6,7,
8-5[8:1]*^5[8:1],,8-3[8:1]*^3[8:1],,8,,6,7,
8^6[8:1]/1v6b[8:1],,1^3[8:1]/8v3b[8:1],,1b/8b,,6,7,
1/8-4[8:1],1,81,1,2-6[8:1]/7,7,72,7,
Cf,,,2,1bw5b[8:1],1,1,,
8-3[8:1],2,6/8-5[8:1],7,8-3[8:1]/2,1,8-4^7[4:1]/6,7,
8,3,2,1,8>4[4:1],4,5,6,
7V53[16:3],5,3,2,1V35[16:3],5,6,7,
8-4[8:1],1-5[8:1],8,1,8w4[8:1],,8b,,
1^6[8:1]/2^5[8:1],,1-5[8:1]/2-6[8:1],,12,,71,78,
7-3b[8:1]/8-4b[8:1],,7^4b[8:1]/8^3b[8:1],,78,,6,7,
8^5-1[4:1],5,3-8[8:1],3-6[8:1],,,1w5[8:1],1,
Cf,,,5,3h[16:3],{16},4h[16:3],,,3,4,
{4}3^8q4[4:2],8,5<1[4:1],5,
{8}4h[4:2],,E7,C,E3,,B7,B1,
E6,E4,E8,E2,Ch[4:1],,B1/B2/E2,,
{1}8qq5[4:2]*pp3[4:2],
{4}6h[4:2],B2,3h[4:2],B7,
{8}5h[8:7],,,B5,E7,B8,E2,E3,
{4}4xpp1>5[4:3],B7,{8}6x,7x,8x,8x,
{4}1bx<5q2[4:4],,,,,Ch[1:2],
