&title=Epistrofi
&artist=Sephid
&first=1.05
&des=꧁『δop༒lɪvÆæИ.²』꧂
&lv_5=14
&inote_5=(185)
{16}
4,5,3,4,2h[16:14],,,,,,,,,,,,,,3>5[16:14],,,,,,,,,,,,,,4,,3,,2h[16:14],,,,,,,,,,,,,,3v6[12:3],,,,,,,,1V35[16:6],,,,,,6,,,,7h[16:14],,,,,,,,,,,,,,6<4[16:14],,,,,,,,,,,,,,5,,6,,7h[16:14],,,,,,,,,,,,,,3h[16:4],,,,8,,2,,5,3,7,4,6,3,5,2,4,3,8b,,,,4,,5-3[8:1],,,,7-5[8:1],,,,2h[16:4],,,,4,,,,35,,3V51[12:3]/5,,,,6,,7,,8,,,,
4,,5-3[8:1],,,,7-5[8:1],,,,2h[16:4],,,,4,,3,,5,,1,2,3,4,6,7,8,1,5,,,,
7,,1-7[8:1],,,,3-1[8:1],,,,6h[16:4],,,,8,,,,71,,7V51[12:3]/1,,,,4,,3,,2,,,,
7,,1-7[8:1],,,,3-1[8:1],,,,6h[16:4],,,,8,,7,,1,6,2,3,4,5,8,7,6,5,
1bs5[12:5],,,,,,,,,,6bV84[12:26],,,,1bs5[12:9],,,,,,,,,,,,,,,,,,,,,,,,,,,,,,,,,,,,,,,,,,5,3,5,4,6,5,6,5,7>2[12:3],,,,2>5[12:3],,,,5<8[12:3],,,,8,,,,2>5[12:3],,,,5<1[12:3],,,,1>5[12:3],,,,5,,6,,8,,8,,2,,2,,4,3,5,4,6,5,7,4,8z4[16:10],,,,5,,3,,2-6[8:1],,,,2,,,,
{24}
7,8,1,2,3,,
{16}
5,4,6,5,7h[16:1],,7h[16:1],,4v6[12:2],5,2,,,,1,,3,,5,5,4,7,3,5,2,6,4,,8-6[8:1],,7,2,8,,5,4,3<6[8:1],2h[16:1],,,5,,7,,1-3[8:1],,2,8,1,,5,,6v3[12:2]/4h[16:1],,6h[16:1]/4h[16:1],,5h[16:1],,5h[16:1],,
{24}
2,1,8,7,6,,
{16}
4,5,3,4,2h[16:1],,2h[16:1],,5v2[12:2],4,7,,,,8,,6,,3,3,7,5,6,3,4,2,5,3,8V62[12:5],,,,,,1,2V85[16:5],3,,,,,,4,3,2,,1q8[12:4],,,,8,,,,6h[16:6],,,,,,{24}
1,2,3,4,5,,
{16}
8h[64:1],,5,6,3<5[8:1],4,2,,8h[64:1],7,6pp7[16:3],,,,4,,2h[64:1],,3,3,6,4,8,3,5h[64:1],2,6,,4-2[8:1],,3,7,4,,8,7,6<1[8:1],5h[16:1],,,1,,2,,4-6[8:1],,5,3,4,,2,,
7v1[12:2]/1h[16:1],,7h[16:1]/1h[16:1],,2h[16:1],,2h[16:1],,
{24}
8,7,6,5,4,,
{16}1h[64:1],,4,3,6>4[8:1],5,7,,1h[64:1],2,3qq2[16:3],,,,5,,7h[64:1],,6,6,3,4,2,6,5h[64:1],7,3,4,1V36[12:5],,,,,,5,6v4[12:3],7,,,,,,7,8,1p5[8:1],,5,,,,3>5[16:5],,,,4b,,,,,,8h[16:2],,,,8h[16:2],,3,4,2h[16:2],,,,3h[16:2]/5,,,,4h[16:2],,7,,8h[16:2],,5,,7h[16:2],,5,,6h[16:2]/4>1[10:1],,,,
{32}
8,7,6,5,{16}4,,{16}8h[64:1],,5,5,3,3,7,7,4,6,5,7,5,4,3,2,8,7,6,5,1h[16:1],,1h[16:1],,8<2[16:5]/2h[16:1],,1h[16:1]/7h[16:1],,6b/8,,,,,,
1,8,7h[16:2],,,,6h[16:2]/4,,,,5h[16:2],,2,,1h[16:2],,4,,2h[16:2],,6,,3h[16:2]/5^8[10:1],,,,
{24}
1,2,3,4,5,,{16}1h[64:1],,5,6,3,4,2,5,1h[64:1],,4,3,6,5,7,3h[16:3],4,,2,,
{24}
1v4[8:1],8,7,6-1[8:1],,,
{16},,,,3h[1:1],,,,,,,,,,,,,,,,6h[16:6],,,,5,,5h[4:1],,,,4,,4,,3,4,3h[8:3],,,,5,,5h[16:4],,,,4,,4,,6,5,7h[8:3],,,,2,,1h[16:4],,,,7,,,,53,,3h[16:4]/5h[16:4],,,,,,4h[16:4]/6h[16:6],,,,,,3h[2:1],,,,5h[16:4],,,,,,2h[4:1]/6,,,,4,3,2,1,8,7,6/4h[16:1],,4h[16:1],,3/5h[16:1],,5h[16:1],,
4h[16:1]/2h[16:1],,2h[16:1]/4h[16:1],,1h[16:1]/5h[16:1],,1h[16:1]/5h[16:1],,
{24}1,2,3,4,5,6,7,8,1,2,3,4,5,6,7,8,1,2,3,4,5,6,7,8,
{8}1h[8:1],6,1h[8:1],6,2,43,7,65,{16}3,3,7,7,1,2,3,4,8/5h[4:1],,,,1^4[8:1],8,7,6,
1b-6[8:1],,,,13,,2-5[8:1],,,7,2^7[8:1],,6h[8:3],,2,,,,5-1[8:1],,7-4[8:1],,5,,7,,,,
1^6[8:1],,2,,3-8[8:1],,,,35,,4-7[8:1],,,1,4,,2,,2h[4:1],,,,8,,5,,6,,78,1,2,3,8^3[8:1],7,6,5,
8-5[8:1],,,,83,,2-6[8:1],,,6,2^5[8:1],,7h[8:3],,2,,,,5-2[8:1],,8-4[8:1],,5,,8,,,,
1^6[8:1],,2,,3-8[8:1],,,,36,,7-4[8:1],,,1,7,,2,,6h[4:1],,,,1,,2,,3,4,15,8,7,6,8qq1[8:3],1,2,3,
8^3[8:1],,,,,,,,,,8w4[8:1],,,,8b,,,,4-8[8:1],,2-5[8:1],,4,,2,,,,
8^3[8:1],,7,,6-1[8:1],,,,64,,5-2[8:1],,,8,5,,7,,7h[4:1],,,,1,,4,,3,,12,8,7,6,1^6[8:1],2,3,4,
1-4[8:1],,,,16,,7-3[8:1],,,3,7^4[8:1],,2h[8:3],,7,,,,4-7[8:1],,1-5[8:1],,4,,1,,,,
8,,7,,65,,2,,34,,7,,46,,25,,37,,16,,8,7,4,6,3,5,2,4,1,8,3,7,2,6,1,5>6[2:1],
{1}2h[1:1],{16}4-6[8:1],,1,,4,,2-8[8:1],,7-3[8:1],,2,,7,,,,
61,,2,4,3h[8:1],,8,4,6-1[8:1],,2-5[8:1],,6,,2,,1,8,7,6,85,1,2,3,5,6,7,4,3qq5[16:5],2,8,7,
6,,,,7h[16:1],,7h[16:1],,2,6,4h[8:1],,7,3,5h[8:1],,1-4[8:1],,6,,1,,5-2[8:1],,7-4[8:1],,5,,7,,,,
3,,3,,25,,7,7,4,,8,,26,,1,4,2-5[8:1],,8,8,2-8[8:1],,7-3[8:1],,2pp1[4:1],,7,,2,,,,
{8}8b<1[2:3]*>7[8:9],,,,,,,,,,,,,,8-4[4:1],8pp5[4:9],
