&title=幹物女(WeiWei)
&artist=Z新豪
&first=0
&des=fullowei
&lv_5=12+
&inote_5=(71.5)
{16},,,
{2}5v4[8:1],
{16}1h[16:3],,,3,2/4,,5,,{16}4/6-3[8:1],,,,
{16}1,,1,,
{16}2h[16:3],,,4,3/5,,6,,4q5[4:1]/7,,,,,,,,
{16}8h[16:3],,,6,7/5,,4,,{16}5/3q6[4:1],,,,
{16},,,,
{16}7h[16:3],,,5,6/4,,3,,5v4[8:1]/2,,,,,,,
{16},
{4}3h[8:1]/5h[8:1],4h[8:1]/6h[8:1],3h[8:1]/5h[8:1],{16}4h[8:1]/6h[8:1],,,5x,
{4}3h[8:1]/4h[8:1],5h[8:1]/6h[8:1],3h[8:1]/4h[8:1],{16}5h[8:1]/6h[8:1],,,4x,
{4}3h[8:1]/5h[8:1],4h[8:1]/6h[8:1],3h[8:1]/5h[8:1],{16}4h[8:1]/6h[8:1],,,5x,
{4}3h[8:1]/4h[8:1],5h[8:1]/6h[8:1],3h[8:1]/4h[8:1],{16}5h[8:1]/6h[8:1],,,,
{4}3b>7[4:1]/Cf,,{16}6V82[4:1],,5,5,,,,,
{16}3p6q3[2:1],,4,4,,,,,{16}5h[8:1],,,,5h[8:1],,,,
{4}1bpp1[4:1]/Cf,,{16}6pp5[4:1],,5,5,,,,,
{16}3-7[8:1],,4,4,,,,,4-1[8:1]/5-8[8:1],,,,,,,,
{64}2bx/8bxqq8[4:1],3x,4xh[32:3],,,,,,
,3x,2x,,,,,,
{16}8,,1,,
{64}2bx,3x,4xh[32:3],,,,,,
,3x,2x,,,,,,
{16}8,,1,,
{16}2^7[8:1],4,2,4,2-4v5-7[4:1],,,,
{16},,,,,,8,,
{64}7bx/1bx>5v2[4:1],6x,5xh[32:3],,,,,,
,6x,7x,,,,,,
{16}1,,8,,
{64}7bx,6x,5xh[32:3],,,,,,
,6x,7x,,,,,,
{16}1,,8,,
{16}7,5,6,4,5-7[16:1],3,4-2[16:1],,5v4[12:1],,4,,5,,1,,
{16}2bh[8:1]/5bh[8:1],,,6,4/7,,3pp1^2[4:1],,8,,,,
{4},
{16}7bh[8:1]/4bh[8:1],,,3,5/2,,6pp2b[4:1],,4,,,,
{4},
{16}3-1[16:1]/8,,4,5,3,,,,
{16}3-1[16:1]/8,,4,5,3-7[12:1],,,,
{16}3b-1[16:1]/6b,,,5,3-7[12:1],4,4,4,
{32}3-1[16:1],,,5,,,4,,
{4}3,
{4}6h[8:1]/4h[8:1],5h[8:1]/3h[8:1],6h[8:1]/4h[8:1],{16}5h[8:1]/3h[8:1],,,4x,
{4}6h[8:1]/5h[8:1],4h[8:1]/3h[8:1],6h[8:1]/5h[8:1],{16}4h[8:1]/3h[8:1],,,5x,
{4}6h[8:1]/4h[8:1],5h[8:1]/3h[8:1],6h[8:1]/4h[8:1],{16}5h[8:1]/3h[8:1],,,4x,
{4}6h[8:1]/5h[8:1],4h[8:1]/3h[8:1],6h[8:1]/5h[8:1],{16}4h[8:1]/3h[8:1],,,,
{4}6b<2[4:1]/Cf,,{16}3V17[4:1],,4,4,,,,,
{16}5pp5qq4[2:1],,4,4,,,,,{16}1h[8:1],,,,1h[8:1],,,,
{4}8bqq8[4:1]/Cf,,{16}3qq4[4:1],,4,4,,,,,
{16}6-2[8:1],,5,5,,,,,
{4}4w8[8:1],,
{64}2bx/8bxq7[8:1],3x,4xh[32:3],,,,,,
,3x,2x,,,,,,
{16}8,,1,,
{64}2bx/8bx-5[12:1],3x,4xh[32:3],,,,,,
,3x,2x,,,,,,
{16}8,,1,,
{16}2qq7[4:1],4,2,4,2-4v5-7[4:1],,,,
{16},,,,,,8,,
{64}7bx/1bxp2[8:1],6x,5xh[32:3],,,,,,
,6x,7x,,,,,,
{16}1,,8,,
{64}7bx/1bx-4[12:1],6x,5xh[32:3],,,,,,
,6x,7x,,,,,,
{16}1,,8,,
{16}7,5,6,4,5-7[16:1],3,4-2[16:1],,5v4[12:1],,4,,5,,1,,
{16}2bh[8:1]/5bh[8:1],,,6,4/7,,3pp1^2[4:1],,8,,,,
{4},
{16}7bh[8:1]/4bh[8:1],,,3,5/2,,6pp2b[4:1],,4,,,,
{4},
{16}3-1[16:1]/8,,4,5,3,,,,
{16}3-1[16:1]/8,,4,5,3-7[12:1],,,,
{16}3b-1[16:1]/6b,,,5,3-7[12:1],4,4,4,
{32}3-1[16:1],,,5,,,4,,
{4}3,
{2}5-2[1:1]/6-1[2:1],,6-1[2:1],,
{4}8qq8[4:1],1pp1[4:1],,6^3b[4:1],,,
{16}E1,C,,A6,E6,E5,E4,A3,
{4}7x-3[4:1],,1pp2[4:1],,1qq8[4:1],,3^6[4:1],,
{4}7>4[2:1],5,4>6[2:1],5,6<3[2:1],4,3>5[2:1],4,{8}5,,4,,
{4}4-1[8:1]/5-8[8:1],,
{64}2bx/8bx-4[12:1],3x,4x,,,,,,
4x-8[12:1]/6bx,3x,2x,,,,,,
{16}8,,1,,
{64}2bx-6[12:1],3x,4x,,,,,,
4x,3x,2x,,,,,,
{16}8,,1,,
{16}2qq7[4:1],4,2,4,2-4v5-7[4:1],,,,
{16},,,,,,8,,
{64}7bx/1bx-5[12:1],6x,5x,,,,,,
5x-1[12:1]/3bx,6x,7x,,,,,,
{16}1,,8,,
{64}7bx-3[12:1],6x,5x,,,,,,
5x,6x,7x,,,,,,
{16}1,,8,,
{16}7,5,6,4,5-7[16:1],3,4-2[16:1],,5v4[12:1],,4,,5,,1,,
{16}2bh[8:1]/5bh[8:1],,,6,4/7,,3pp1^2[4:1],,8,,,,
{4},
{16}7bh[8:1]/4bh[8:1],,,3,5/2,,6pp2b[4:1],,4,,,,
{4},
{16}3-1[16:1]/8,,4,5,3,,,,
{16}3-1[16:1]/8,,4,5,3-7[12:1],,,,
{16}3b-1[16:1]/6b,,,5,3-7[12:1],4,4,4,
{32}3-1[16:1],,,5,,,4,,
{8}3,1/8,
{64}2bx/8bx-4[12:1],3x,4x,,,,,,
4x/6bx-2[12:1],3x,2x,,,,,,
{16}8,,6,,
{64}3bx-7[12:1],4x,5x,,,,,,
5x,4x,3x,,,,,,
{16}8,,1,,
{16}2qq7[4:1],4,2,4,2-4v5-7[4:1],,,,
{16},,,,,,8,,
{64}7bx/1bx-5[12:1],6x,5x,,,,,,
5x/3bx-7[12:1],6x,7x,,,,,,
{16}1,,3,,
{64}6bx-2[12:1],5x,4x,,,,,,
4x,5x,6x,,,,,,
{16}1,,8,,
{16}7,5,6,4,5-7[16:1],3,4-2[16:1],,5v4[12:1],,4,,5,,1,,
{16}2bh[8:1]/5bh[8:1],,,6,4/7,,3pp1^2[4:1],,8,,,,
{4},
{16}7bh[8:1]/4bh[8:1],,,3,5/2,,6pp2b[4:1],,4,,,,
{4},
{16}3-1[16:1]/8,,4,5,3,,,,
{16}3-1[16:1]/8,,4,5,3-7[12:1],,,,
{16}3b-1[16:1]/6b,,,5,3-7[12:1],4,4,4,
{32}3-1[16:1],,,5,,,4,,
{8}3>6[8:7],8,
{8}4h,4h,4h,4h,4h,4h,4h,4h,,,
{1}8bs4[4:3],
{4}7?-5[8:1],1?-3[8:1],7?-5[8:1],1?-3[8:1],
{4}7?-5[8:1],1?-3[8:1],8?-4[4:1],,
