&title=Magnolia
&artist=M2U
&first=0
&des=Charholer
&lv_5=13+
&inote_5=(80){8},,,,,,,,
{8}1/8,{32}7,3,8,2,{8}1<5[8:2],8/2,1,{32},,2,3,{8}4h[8:1],,
{8}8/1,{32}2,6,1,7,{8}8>4[8:2],1/7,8,{32},,7,6,{8}5h[8:1],,
{8}1-5[16:1]/2,{32}7,1,8,2,{8}1b,B2/B3/B6/B7/C,
{8}8-4[16:1]/7,{32}2,8,1,7,{8}8b,B7/B6/B3/B2/C,
{8}1b-5[16:1]/8b,{32}1w5[16:1],8,2,7,{8}1b>1[16:3]*<1[16:3],1b,1b,,
{128}A1,D2,A2,D3,A3,D4,A4,D5,A5,D6,A6,D7,A7,D8,A8,D1,
{64}1x,2x,3x,4x,5x,6x,7x,8x,
{16}1hx[4:1]/5x,6,7,8h[16:1],,,
{16}1/3,4,5,6>7[16:5]/4h[8:1],7,8,1h[4:1],
{8},,,
{16},6/8,5,4,5/3,{32}2,1,4>1[16:1],,8<5[16:1],5,7b,,,,{16}4,8b,,
{16}3/4pp8[16:3],6,2,7/8,,1,2,3,4,6/5h[8:1],7>6[16:20],8,
{64}1>6[16:18],2x,3x,,,,,,{8},
{12}B8,B1,B2,B3,B4,B5,
{8}Ch[16:10],,,,,,,5,
{8}3h[8:1]/6,7,7h[8:1]/1,2,2h[8:1]/5>3-1-5[8:2],6,7h[8:1]/5,,
{8}8h[8:1],6,5h[8:1]/4,3,{16}2h[8:1]/1>3-5q5[8:2],8,7,6,5/1,,,,
{8}7h[8:1],4,6/1-5[8:1],4/5<8[8:1],8q4[8:1],4q8[8:1],C,,
{8}6h[8:1],1,6pp4[4:1]/3qq5[4:1],1/8,A6/A3,,A4/A5/E5,,
{8}8hb[8:1]/4,C,8-5[16:1]/1-5[16:1],5-2[16:1]/4,1/8-6[16:1],2,8b,,
{8}5/1h[8:1],C,8/2>4[16:1],7<5[16:1]/1,1-5[16:1]/2-6[16:1],8-4[16:1]/7-3[16:1],1b/2b/C,8b/7b/C,
{8}3/5h[8:1],2,8-6[16:1]/1-5[16:1],4-8[16:1]/5,8/1>4[16:1],8,1b,,
{8}7/4h[8:1],8,5<8[16:1]/8,4/1>4[16:1],5-1[16:1]*v8[16:1]/4,1/8,5b/C,,
{16}1/8h[8:1],1,2-6[16:1],3h[8:1]/4,4,5,6/2,7,
{16}5/8h[8:1],4,3,2h[8:1]/7,6,5,{32}8/4,1/5,2/6,3/7,
{16}4h[8:1]/8,8,7-3[16:1],3/6h[8:1],3,1,2/7,1,8h[8:1]/4,5,6,7h[8:1]/1,2,3,
{32}8/4,7/3,6/2,5/1,
{16}4h[8:1]/8,8,1-5[16:1],6/2h[8:1],7,8,3/1,2,
{48}1,8,7,6,5,4,3,2,1,8/4,5,6,7,8,1,2,3,4,{16}5/C,,
{16}7h[8:1]/8,1,2-6[16:1],3h[8:1]/4-8[16:1],5-1[16:1],6,2,4,5,,6/2,
{48}7/1,2,3,4,5,6,7,8,1x/5x,2x/6x,3x/7x,4x/8x,,,,
{16}2b/6hb[8:1],,,3b<8[16:3]/7hb[8:1],,,4b/8b-4[8:1]*>8[4:1],,
{8},,,C/B4/B5,
{16}7b/3hb[8:1],,,6b>1[16:3]/2hb[8:1],,,5b/1b<1[8:3]*q5q1[8:3],,
{8},,,{48}B7,D3,B8,A2,E1,D2,
{16}A1,A5,A6,A7,A8,,2,,5,,3,7,
{32}1,5,1,6,1,7,1,8,
{16}E1,A1,A2,A3,A4,,7,,4,,6,2,
{32}5,4,5,3,5,2,5,1,
{16}B4/B5/E5,2,4/3,7,6/5,1,4/3,8,6/5,2/1,4/3,8/7,
{32}4,5,2,7,3,6,1,8,
{16}2b/7b,3/6,4>2[16:1]/5p1[16:1],1b/8b,5<7[16:1]/4q8[16:1],2/7,4b/5b,,4b/5b,,
{64}1x,8x,7x,6x,5bx/1b,,,,,,,,8x,1x,2x,3x,{8}4bx/8b,
{32}2-4[16:1]/7,,,6,,,6,,2-8[16:1]/7,,7,7,,5,5,,2/7,,,6,,,6,,
{16}A7/E8/B7/E7,A2/E2/E3/B2,{64}5,4,3,2,1,8,7,6,
{32}2-6[16:1]/5,,,6,,,6,,2/7,,7,7,,1,1,,7-4[16:1]/8,,1/2-5[16:1],,7/6,,3/2,,
{16}A7,A2,{64}7,8,1,2,3,4,5,6,
{32}2-8[16:1]/7,,,6,,,6,,2-4[16:1]/7,,7,7,,5,5,,2/7,,,6,,,6,,
{64}A3/B3/E3/E4,,,,A6/B6/E7/E6,,,,2,3,4,5,6,7,8,1,
{32}2-4[16:1]/7,,,6-2[16:1],,,8-6[16:1],,2/A2,,,A6/6,,,8/A8,,
{16}3,2,1,4hx[16:1]/8hx[16:1],,
{16}A3/E3/D3/A2/E2/D2/A1/A7/E7/D7/A6/E6/D6/A5,,,
{16}5h[32:1]/3h[32:1],4h[32:1]/6h[32:1],1h[32:1]/8h[32:1],1h[32:1]/8h[32:1],
{32}4h[48:3]/2h[48:3],,,6h[48:3]/4h[48:3],,,6h[32:1]/8h[32:1],,
{32}2h[48:3]/1h[48:3],,,7h[48:3]/1h[48:3],,,7h[32:1]/4h[32:1],,
{32}5h[32:1]/3h[32:1],,7h[32:1]/1h[32:1],,{48}8,1/7,2/6,3/5,4,,
{16}6h[32:1]/2h[32:1],7h[32:1]/3h[32:1],1h[32:1]/8h[32:1],1h[32:1]/8h[32:1],
{32}5h[48:3]/7h[48:3],,,5h[48:3]/3h[48:3],,,3h[32:1]/1h[32:1],,
{16}5h[32:1]/6h[32:1],8h[32:1]/1h[32:1],4h[32:1]/3h[32:1],1h[32:1]/8h[32:1],
{64}7,6x,5hx[32:3],,2,3x,4hx[32:1],,E5,B4/B5,B3/B6,B2/B7,,,,,
{16}7hx[32:1]/1hx[32:1],8h[32:1]/2h[32:1],4h[32:1]/5h[32:1],4h[32:1]/5h[32:1],
{32}8h[48:3]/7h[48:3],,,4h[48:3]/2h[48:3],,,6h[32:1]/5h[32:1],,
{32}3h[48:3]/1h[48:3],,,6h[48:3]/7h[48:3],,,8h[32:1]/2h[32:1],,
{32}4h[48:3]/6h[48:3],,,7h[48:3]/3h[48:3],,,8h[32:1]/2h[32:1],,
{48}6b/4b,5x,,,,,,,,3b/7b,6x/4x,5x,,,,,,,2b/8b,3x/7x,6x/4x,5x,,,,,,
{48}1b,2x/8x,3x/7x,4x/6x,5x,,,,,
{48}A2,E3/D3,A3,E4/D4,A4,E5/D5,A5,E6/D6,A6,E7/D7,A7,,
{8}1x/8hx[8:1],3,3/8>3[8:1],5/3q5[8:1],7/8-4[16:1],C,8b,,
{16}4h[16:3]/5,,5h[16:1],,3b/6,{32}1,8,7/2,3,4,5,
{32}1,2,8,3,7,4,6,5,7/4,,6/3,,{48}5/2,4,3,2,1,8,
{16}7-5[16:1]/5,,4/2-4[16:1],,7-3[16:1]/8,,1/2-6[16:1],,7/5,,2/4,,5b,
{32}6/4,7/3,8/2,,8/2,,
{32}5,4,5,4,6,4,6,4,7,8,1,2,3,4/1,5/2,6/3,
{16}7/4,8/1,2/3,
{32}4/5,,6,3,7,2,
{64}8,7,6,5,4,3,2,1,
{32}8/4,,3,4,2-5[16:1],,7/5,,8,1,7,,{16}5/2,6,
{32}1/8,,6,5,8-4[16:1],,1/3,,2,8,1,7,{16}8,6,
{32}8/7,,3,4,1-5[16:1],,5/3,,3,,{16}2/8,1/7,7,
{32}5/6,7,8,1,2-6[16:1],3,4/5,6,7,8,1,2,{16}3/C,,
{32}2b,3,2,4,2,5,1b,4,1,5,1,6,8b,7,8,7,
{48}8b,1,2,3,4,5,6-2[16:1],7,8,1/5b,2x/6x,3x/7x,4x/8x,5x/1x,2,3,4,5,{16}2b/6,,
{32}4/5,,1,8,2/7,,4/5,,2,7,3,6,{16}5/4,4,
{16}2/7,7,1s5[16:1]/8z4[16:1],{64}1b/8b,2/7,3/6,4/5,{16},,,,
{64}2b,3x,4x,5x,,,,,,,,,7b,6x,5x,4x,,,,,,,,,1b/8b,7xq1b[64:15]/2x,3xq5[64:14]/6x,4x/5x,,,,,
{16},,,,,,A1/D1/E1/A5/D5/E5,,
{64}2bx/5bx,3x/6x,4x/7x,,,,,,,,,,8bx/5bx,7x/4x,6x/3x,,,,,,,,,,2bx/5bx,3x/6x,4x/7x,5x/8x<7-5>4-2<1[4:1],,,,
{16},{32}A7,E7/D7,A6,E6/D6,A5,E5/D5,A4,E4/D4,A3,E3/D3,A2,,,,{64},
{16}6h[16:5],,,5h[16:5],,,4h[2:1],,,,,,,,C,,3h[16:5],,,4h[16:11],,,5h[2:1],,,,,,,,,,,
E
