&title=4つの大鍵盤のための小悪魔狂想曲 (feat. PYKAMIA)
&artist=Ice; PYKAMIA
&first=0
&des=crychic keyboardist
&des_5=crychic keyboardist
&lv_5=14
&inote_5=(165){4},{8}3/5,{16}3,4,{8}3,2/5,{16}1,4,1,4,
{8}2,6,5/3,{16}3,4,{8}3,2/5,{16}1,4,1,4,
{8}2,6,7h[4:1],{24}1,2,3,{8}4,8h[4:1],{24}2,3,4,5,,,{8}1h[4:1],
{24}3,4,5,{8}6,8h[4:1],{24}2,3,4,5,{48},,,,{16}7/1,6,5,4,
1,2,3,4,{8}8/5,{16}8,4,{8}8,3/8,{16}8,2,8,2,
{8}8,1/7,1,{16}1,5,{8}1,1/5,{16}1,6,1,6,
{8}1,7/1,2h[4:1],{24}8,7,6,{8}5,1h[4:1],{24}7,6,5,4,,,{8}8h[4:1],
{24}6,5,4,{8}3,1h[4:1],{24}7,6,5,4,{48},,,,{16}2/8,3,4,5,
8,7,6,5,{8}1/4,3,3,3,3,3,
3,3,8/3,7,7,7,7,7,
7,7,{32}3b/6b,5/4,{1},{4},,,{16},,,{8}5,
3h[16:1],4,3h[16:1],4,3h[16:1],
4,2h,5,3h[16:1],4,3h[16:1],4,3h[16:1],
4,2h,5,3h[16:1],4,3h[16:1],4,3h[16:1],
4,2h,5,3,3/8,8,2/7,3,
6/4,6,5p1[8:1],6,7,8,5-2[8:1],6,
7,8,1<6[8:1],2,3,4,5<8[8:1],4,
5,3,{16}2,1,2,1,3,8,3,8,5,6,5,6,
4,7,4,7,{4}4>1[8:1],{16}1,8,7,6,{4}5V71[16:3],
3/5,{8}4q8[8:1],3,2/4,1,4-7[8:1],3,
2/4,1,8V64[8:1],{16}2,2,{8}8,3,{16}5>2[8:1],6,7,8,
{4}5/1,{16}1/7h[4:1],2,3,4,5,6,7,8,1/7h[4:1],2,3,4,
5,6,7,8,{4}1h[16:3],{16}8-3[8:1],7,6,5,{4}4/8,
2/4,{8}6,6-1[8:1],,2,{4}2>5[8:1],
1<6[4:1],6>3[4:1],3>8[4:1],8<5[4:1],
{8},4,{4}4>1[8:1],{8}8<5[8:1],8,,3,
{4}3>8[4:1],8<5[4:1],5>2[4:1],2<7[4:1],
{8}7,6,{4}5h[2:1],{8}6,4,{4}3h[8:3],
{8}2,1,{16}8/4,7,6,5,4,3,2,1,{4}8h[4:1],
7,{8}5/6-1[8:1],5/6h[4:1],,,4/3-8[8:1],4/3h[4:1],
,,7,{16}1,1,7,6,5,4,8,7,6,5,
1,8,7,6,4,5,4,6,4,5,4,7,3,5,3,7,
3,5,2,7,1,8,1,8,1,8,1,8,{4}1-4[8:1],
1/7,{8}6-8[8:1],6,6/5,4,3-1[8:1],3,
3/4,5,{4}7-4[8:1],{8}7/1,2,{4}3-8[8:1],
{8}5/3,6,{16}7,1,8,2h[16:3],8b,7,6,5,4/1b,2,3,4,
{24}5/7b,8,1,2,3,4,{4}5/1bw5[8:1],1,8v3[8:1]*z4[8:1],
8,{8}5/2,{16}3,4,{8}3,8,4/7,{16}6,5,
{8}6,1,{4}1b>4[8:1]*<6[8:1],1bw5[8:1],1b,
{8},,7b/4,{16}3,5,2,6,1,7,1,2,3,4,
1,8,7,6,{8}2b,{16}8,3,7,2,6,1,5,6,7,8,
5,4,3,2,6b,4,6,2,7,8,7,2,8b,4,8,3,
1,2,1,3,8b,7,6,5,3,2,1,8,4,3,2,1,
5,4,3,2,{8}1h[8:1],{24}8,7,6,{8}5h[8:1],{32}8b,7,6,5,{8}4>1[8:1],6,
4,6,7h[8:1],{24}8,1,2,{8}3h[8:1],{32}8b,1,2,3,{8}4<7[8:1],3,
4,2,1h[8:1],{24}8,7,6,{8}5h[16:2],{32}8b,7,6,5,{8}4>8[16:3],4,
{16}8,7,6,5,4b,3,2,1,8,7,6,5,{24}1b,2,{48},,{16}7,6,
2,3,6,5,3h[8:1],,,4,{8}3,{16}5,5,4-7[8:1],3,{8}2-8[8:1],
{16},,,,6h[8:1],,,5,{8}6,{16}4,4h[16:5],5,6,7,8,
1,8,7,6,5/3h[8:1],,,4,{8}3,{16}5,5,2,4,3,5,
4,7,5,6,4h[8:1],,,6,{8}5,{16}7,7,{8}4,5/6,
4/7,3/8,2b/1,{16}3,4,{8}5b/6,8,1b/7,{16}6,5,
{8}3b/4,1,8b/2,{16}3,4,{8}6b/5,8,1/7b,{16}6,5,
{8}4/3b,1,{16}8/2-5[8:1],,,1,{8}2/1,8,{16}7-4[8:1],,,8,
{8}7/8,1,2b,{24}7,6,5,4,3,2,1,8,7,6,5,4,3,2,1,
8,7,6,5,4,3,8b,1,2,3,4,5,{32}6,7,8,1,2,3,4,5,6,7,8,1,2,3,4,5,
6,7,8,1,2,3,4,5,7b,6,5,4,3,2,1,8,7,6,5,4,3,2,1,8,3b,4,5,6,7,8,1,2,
3,4,5,6,7,8,1,2,{4}3h[2:1]/7h[2:1],,,,{32}2b/1h[16:3],
3,{16}4,,5,,,{8}6,{32}7/8h[16:3],6,{16}5,,4,
,,{8}3,{32}2b/8h[4:1],3,4,5,{8}6,{32},,,,,,,,7b/1h[4:1],6,5,4,{8}3,
{32},,,,,,,,2b/7b,3/6,{16}4/5,,,,,,,,,,,,,,,{4}3,
4,5h[4:1],
3,3,5h[4:1],3,
3,5h[8:3],4,4,
5h[4:1],4,4,5h[4:1],
6,6,5h[4:1],7,
7,6/5>3[4:1],7,7,
5/6<8[4:1],4,4,6/5>2[4:1],
7,8,1/2>4[4:1],8,
8,3/4<6[4:1],2,2,
4/3>1[4:1],5,5,5/4>1[4:1],
7,6,4/5<8[4:1],2,
3,4/5,5h[8:1]/4h[8:1],4h[8:1]/3h[8:1],
3h[8:1]/2h[8:1],2h[8:1]/1h[8:1],8-4[8:1]/1-5[8:1],8b/1b,
,,{2}1b,
{4},6,6,{8}6,6/5,
5/6,6/5,6/4,{16}3,4,{8}3,2/5,{16}1,4,1,4,
{8}2,6,5/3,{16}3,4,{8}3,2/5,{16}1,4,1,4,
{8}2,6,1b/7h[4:1],{24}1,2,3,{8}4,1b/8h[4:1],{24}1,2,3,4,,,{8}2b/1h[4:1],
{24}2,3,4,{8}5,1b/8h[4:1],{24}1,2,3,4,{48},,,,{16}7b/1,6,5,4,
1,2,3,4,{8}8/5,{16}8,5,{8}8,4/8,{16}8,3,8,2,
{8}8,1/8,1,{16}1,4,{8}1,1/5,{16}1,6,1,7,
{8}1,7/1,8b/2,{24}8/2h[8:1],7,6,{8}5,8b/1,{24}8/1h[8:1],7,6,5,,,{8}7b/8,
{24}7/8h[8:1],6,5,{8}4,1b/2,{24}2/1h[8:1],3,4,5,{48},,,,{16}5,6,4,7,
3,8,2,1,3b,4,1,6,3b,4,1,8,3b,4,1,6,
3b,4,1,8,3b,5,1b,7,3b,5,1b,7,{8}3b,4/8b,
2b/6,8b/4,{4}2b/6,{32},,,,,,,,1/2b,3,4,5,{8}6,
{32},,,,,,,,8/7b,6,5,4,{8}3,{4},,,{32}1b/8b,
2/7,3/6,5h[32:77]/4h[32:77],
E
