&title=SAS, SSS, ASA, AAS
&artist=R.H.S.
&first=-0.02
&des=HL
&lv_5=14
&inote_5=(179)
{1},,
{8}1,,1s5[4:1],8,1,,,,4,,4-1[4:1],,4,,,,
3,6,3V15[4:1],6,3,,,,6,3,6V84[4:1],3,6,,,,
1,,1s5b[4:1],8,1,,,,4,,4-1[4:1],,4,,,,
3,6,3V15b[4:1],6,3,,,,6,3,6V84b[4:1],3,6,,,,
{8}45,,45,,36,,45,,27,,27,,27,,18,,
24,3,24,3,24,,18,,75,75,6,6,75,,27,,
16,,3,24,15,,8,,6-2[4:1],,1-5[4:1],,,,8,,
16,4,38,5,16,,45,,28,28,5,5,27,,
{16}4,5,4,5,
{8}4z8[4:1],,7,6,5s1[4:1],,,,
8-6v5[4:1],,1v2-4[4:1],,,,,,
6V84[8:3],1v2-4[4:1],6,1,,,,,
6V84[8:3],3V15[8:3],6,3,,,,,
{8}8z4b[4:1],,3,2,1s5b[4:1],,,,
4-2v1b[4:1],,5v6-8b[4:1],,,,,,
2V48b[8:3],5v6-8b[4:1],2,5,,,,,
2V48b[8:3],7V51b[8:3],2,7,,,,,
{16}1,,2,,3,,4,,6,5,6,5,6,,3,,
8,,7,,6,,5,,3,4,3,4,3,,6,,
1,,7,,2,,6,,4,5,4,5,4,,7,,
2,,8,,3,,7,,5,4,5,4,5,,37,,
12,,3,,6,,4,,6,5,6,7,6,,4,,
87,,6,,3,,5,,3,4,3,2,3,,5,,
74,,56,,3,,8,,2,1,3,1,2,,7,,
25,,43,,6,,1,,7,8,6,8,7,,2,,
{8}1s5[4:1],,6,7,8z4[4:1],,,,
5-7v8[4:1],,4v3-1[4:1],,,,,,
7V51[8:3],4v3-1[4:1],7,4,,,,,
7V51[8:3],2V48[8:3],7,2,,,,,
{8}5s1b[4:1],,2,3,4z8b[4:1],,,,
1-3v4b[4:1],,8v7-5b[4:1],,,,,,
3V15b[8:3],8v7-5b[4:1],3,8,,,,,
3V15b[8:3],6V84b[8:3],3,6,,,,,
{16}
8,,7,,6,,5,,3,4,2,5,3,,6,,
1,,2,,3,,4,,6,5,6,5,6,,3,,
8,,2,,7,,3,,5,4,6,3,5,,2,,
7,,1,,6,,2,,4,5,4,5,4,,62,,
18,,6,,3,,5,,3,3,6,6,4,,7,,
12,,3,,6,,4,,6,6,4,4,7,,4,,
25,,43,,6,,1,,7,8,6,8,7,,2,,
74,,5,,6,,7,,1,8,1,8,1,8,1,8,
{4}
1s5[8:11],,,,,,,,
6-1-4[8:11],,,,,,,,
8z4[8:11],,,,,,,,
3-8-5[8:11],,,,,,,,
1s5[8:11],8,8,8,7,7,7,,
6-1-4[8:11],2,2,2,8,8,8,,
8z4[8:11],1,1,1,2,2,2,,
{16}
3,,7,,3,,7,,2,,6,,2,,6,,
1,5,1,5,1,5,1,5,1,2,3,4,5,6,7,8,
1s5[4:1],,4,,5,,6,,8,7,6,5,4,,2,,
8z4[4:1],,5,,4,,3,,1,2,3,4,5,,7,,
1V75[4:1],,3,,1,,2,,1,2,3,4,5,,7,,
8V24[4:1],,6,,8,,7,,8,7,6,5,4,,2,,
74,,56,,3,,8,,2,1,3,1,2,,7,,
25,,43,,6,,1,,7,8,6,8,7,,2,,
38,,12,,7,,4,,6,5,7,5,6,,3,,
61,,87,,2,,5,,3,4,2,4,3,,6,,
4z8[4:1],,1,,8,,7,,5,6,7,8,1,,3,,
5s1[4:1],,8,,1,,2,,4,3,2,1,8,,6,,
4V68[4:1],,2,,4,,3,,4,3,2,1,8,,6,,
5V31[4:1],,7,,5,,6,,5,6,7,8,1,,3,,
1s5[4:1],,4,,5,,6,,8,7,6,5,4,,2,,
8z4[4:1],,5,,4,,3,,1,2,3,4,5,,7,,
1V75[4:1],,3,,1,,2,,1,2,3,4,5,,7,,
8V24[4:1],,6,,8,,7,,8,7,6,5,4,,2,,
{8}
6bV84b[4:1],3bV15b[4:1],6b,3bs7b[8:3],
