&title=Supernova
&artist=雄之助x春野/KAITO/MORE MORE JUMP!
&first=-0.22
&lv_5=13
&des_5=Meksours
&inote_5=
(105){4},,,{8},4/6,
,1,,5/3,,8,,4/6,
,1,,5/3h[4:1],,{64}E7,B6,{16},,,{32},{8}4/6h[4:1],
,1,,5/3h[4:1],,8,,4/6h[4:1],
,1,2/8,7/3<6[4:1],{2},{8}2/7,
3/8,{12}3h[12:1],{24}4,3,,6h[8:1],{12},5,{24},6,{12}5,4/7,,{8}B7/B6,
{24}B2/B3,,6,{12}5,{24}5,4,,4h[8:1],{12},3,,{8}3/7,6/4,
8/2,3/5>1[4:1],1/7,5/6,,{24}7h[12:1],,8,{12}7,1/6,,{8}5/3v8[12:1],
1/7v4[12:1],3,7,{16},6,{8}5h[8:1],{12}7,{24}8/7,7/8>4[2:1],{4},{16},,,{48},{8}4<8[2:1],
{4},{8},8pp4[8:5],
{4},,,{8},{64}3h[2:1]/E7,B6,{16},,,{32},{8}C,
,E5,,B5/B4,,6h[4:3]/4-7V15[2:1],
{4},,,{8},5/3h[8:3],
{4},{8}4h[8:1],5h[8:1],6h[8:1],7h[8:1],{4}8h[4:1],
{8}1h[4:1],6,5,4/3,2/5,1-7-3[2:1]/6V83[2:1],{4},,,{8},4,
,E7,
,E3,,{24}6/4,,7,{12}5,{24}3,5V71[4:1],{16},,,{48},5/1x<5[4:1],2x,{12}3x,
{8},{48}5x-1[8:1],4x,{6}3x,{24},{8}3x,,8h[8:1],{12}3<6[8:1],5,{24},2h[8:1],
{8},{24}1,,1/7,{12},{24}7h[8:1],{12},{24}5,{12}6,{24}4,5,{12},{8}3/6,{24}6,,6,
{12}5,{24}5,7<4[8:1],{12},{8}3>8[8:1],7-3[8:1],3,7,1,{24}3h[12:1],,5,
{12}3,6/2,{24},2h[8:1]/5h[8:1],{8},2/5-8V61[4:1],{4},{12}4,4,,2,
{24}2,4h[8:1],{12},3-8-2-4[4:1],{24}3,5h[8:1],{12},{8}3,5,{12}6,{24}6,5,{12},{8}3/8,
6/1v4[8:1],4/5<8[8:1],1>3[12:1],5-2[8:1],1,5,{24}1h[12:1],,8,
{12}1,{24}1,7qq3[4:1],{12},{8}2/1,7/4h[4:1],{4},{8}4/6,{24}3/5,,4,
{12}5,{24}6,5,,3,{12}5,{24}7,5-1[12:1],,5,{12}7v4[12:1],{24}7,5qq2V86[8:7],{12},{8}7,3h[8:1],
,2h[8:1],,3v6[8:1],{6}3,,{24}6x,5xV71[8:1],{12},{8}1V75[8:1],
5/4,3,2h[4:1],{64}B7,B6,{16},{32},{64}B7,B6,{16},,,{32},{24}4/3,,2/5,
{8},{24}4/5-1[8:1],,3/6,{8},{64}5/2,E3,B3,B4,{16}E5,{12},4h[8:1],{24},5,{12}4,3/6,{24},2,
{12}4,{24}7,5,{12},{8}4-7-5[8:1]*-2[8:1],5/3,{16},,,{48},{24}1,{12}8,{24}8,2>5[8:1],{6},{24}6,
2<7[8:1],{6},{24}6,2,{12},5,5,{24},6,{12}5,{24}7h[24:13],E2,{12},{8}E3,
E4,E5,5x>1[16:3],,5/7,{4},{12}4,
{24}4,5-1[8:1],,5,{12}1V75[8:1],{24}1,5>2[8:1],{12},{8}2-6[8:1],1,{4}1,
{8}3/5,4/2-4[8:1],8/7-3[8:1],2-6[8:1],7,2,8,7v4[8:1],
4-6<7[8:1],7V13[8:1],3>7[8:1],4h[8:1],,{24}4,,4,{12}5,{24}5,4bh[8:1]/Cf,{16},,,{48},{8}6bh[8:1]/E2f,
,2bh[8:1]/E8f,,{24}3,4,3,6,5,6,4v1[8:1]/7-4[8:1],{16},,,{48},{8}4b/7b/Cf,
,{24}4/3,,4/5,{12},6<1[8:1],{24},5/3,{12},{6}6/4,
{8}4h[12:1],5h[12:1]/6h[12:1],2h[12:1]/4h[12:1],5h[12:1]/7<2[8:1],6h[12:1]/2>7[8:1],7,,1h[8:1],
{24}8,7,6,2h[8:1],{12},{24}7,6,5,3-6[12:1],,4,{12}3-8[12:1],3,{16},,,{48},{24}7h[12:1],,8,
{12}7,{24}7,6,,6,{12}5,{24}5,1,2,3,{12}5/4-7[8:1],5/6,{24},3,{8}4,Cfh[4:1],
{4},{8},{24}2h[12:1],,1,{12}2,3/5,{24},5/7,{12},{24}3h[8:1],{12},{24}4,
{8}3,1/2,6/8,{24}5h[12:1],,4,{12}5,3/6,{24},8h[48:5]/1h[48:5],{12},{48}7x/2x,6x/3x,{8}4xh[8:1]/5xh[8:1],
,8-4[8:1],4-2[12:1],8/7,{12}5,6,{24},7h[8:1],{8},{24}1,,1,
{12}3,{24}3,5,,5,{12}7,{24}7,2,3,4,8,7,6,3x,4x,2x,6x,5x,8x,2pp6[8:3],{16},,,{48},{8}2/8,
,7h[8:1],{12},7,{24},6,{12}5,{24}5,4/6v1[12:1],{12},{8}1/2>5[12:1],
6qq3[8:3],{4}2,,{8},1-5[12:1],
2,3-7[12:1],4,5-2[12:1],6,{24}7-4[12:1],,8h[8:1],{8},7-2[12:1],
1,7,4,4h[4:1],,5,6,5/7v4[8:1],
,7/1V35[8:1],,1/7h[8:1],{12},7,{24},5,{12}6,{24}6,5/7-3[12:1],{12},{8}6/4-1[12:1],
7>5[8:3],4,7,{12},E3,{16},,,{48},{64}B2/8-4[2:1],B3,{4},,,{16},,,{32},{8}2bxh[8:1]/Cf,
,7bxh[8:1]/Cf,,4bxh[8:1]/Cf,{16},{32},{64}B3,B2,{8}E2f/5bxV71[4:1],,{64}1bx<4[4:1]*<4[4:1],2x,3x,4x,{16},,,{64}4bxw8b[8:1],
3x,2x,1x,{16},,,{8}Cf,,{24}2h[12:1],,5,{12}4,4h[8:1],{24},5,
{8},{24}5/6,,4/7,{12},{24}8h[8:1],{12},{24}1,{12}8,{24}8,1b/7b,,E3,{12}E4,{24}E7,2/E6,,2,
{12}5,{24}5,4>2[12:1],,4,{12}6-2[12:1],{24}6,4-8[12:1],{12},{8}6,4,7,{24}1/8,,7,
{12}8,{24}8,6>2[4:1],{12},{8}5/7,6h[4:1],{4},{12}4/6,4/6,,3,
{24}3,4,{12},6v1[12:1],{24}2,1-7-5[8:1],{12},{8}5-3[12:1],2,{12}2,{24}1,1,{12},{8}1/2,
4/3>1[12:1],6/5v8[12:1],3-7[12:1],5-2[12:1],3,5,{24}1,,1,
{12}3,{24}3,4-7[12:1],{12},{8}1/7-4[12:1],2-7[12:1],2-5[12:1],{4},{24}6,,6,
{12}5,{24}5,7,,7,{12}3,{24}3,4-8[12:1],,4,{12}2-5[8:1],{24}2,4b>5b[8:5],{12},{8}2b,Cf,
{4},,{16},,,{48},{24}4,{12}5,{24}5,7-4[12:1],{12},{8}2/5-2[12:1],
7x>4[8:3],5x,7x,{12},E3,{16},,,{48},{8}8-4b[12:1],
7,6-2[12:1],5,4-7b[12:1],3,{24}2-5[12:1],,1h[8:1],{8},2<7[8:1],
6,2>5[8:1],6,2/8h[4:1],,6-2[12:1],5/4,6/2-6b[12:1],
,6s2[24:5],,4h[24:5],{16},,,{48},{24}1,{12}2,{24}6,5-2[12:1],{12},{8}4/2-7[12:1],
5/7-5[12:1],8,8h[24:5],{12},5,{16},,,{48},{8}7-3[12:1],
8,2v5[12:1],1,6-2[12:1],7,{24}4,,4,{8},{24}8<5[12:1]*>3[12:1],,8,
{8},8w4[12:1],,8,,{24}4>5[8:7],,3h[8:1]/5h[8:1],{4},,{8},E7,
{4},{8},E3,
5>2[8:1],6,5/7,8-4[12:1],7-3[12:1],8<1[8:7],{4}7,
,{8},C,{4},{8},C,
1/7,2-8[12:1]/6-1[12:1],3/5,2-5[12:1]/6v3[12:1],,2s6b[8:1]/6<4[8:7],,2/6,
{4},{8},C,{4},{8},E1,
,E7,,E3,,E5,,3h[8:1]/6h[8:1],
,{24}7/4h[12:1],,5,{8}4,2h[8:1]/1h[8:1],,{24}8h[12:1]/1s5[1:1],,1,{12}8,8,{16},,,{48},{8}E7,
,C,,E3,
