&title=TIAN TIAN
&artist=Mili
&first=-0.6
&des=In memory of her, passed away on Feb. 13, 2024.
&lv_5=13
&inote_5=(120)
{8},,,,,,,,
{8}1-5[4:1],,,,6-2[4:1],,,,
{8}3-7[4:1],,,,8-4[4:1],,,,
{8}1V35-7[4:3],,,,E7,,E1,,
{8}E3,,,,4/8,,,,
{8}7-4[4:1],,,,3-8[4:1],,,,
{8}6-1[4:1],,,,2-5[4:1],,,,
{8}7V53-1[4:3],,,,E3,,E1,,
{8}E7,,,,3/7,,,5,
{8}5-8-6[4:1],,,3,3-8-2[4:1],,,5,
{8}5V36[4:1],,,,1h[4:2],,,,
{8}8<4[4:1],,{16}E4,E3,E2,E1,{8},,1,,
{8}2h[4:1],,7>3v5[8:3],,,,,4x,
{8}4x>3-8[4:1],,,6,6>5-2[4:1],,,1,
{8}1>2-5[4:1],,,,8h[4:2],,,,
{8}4>8[4:1],,{16}E1,E8,E7,E6,{8},,5,,
{8}6h[4:1],,3>8>3[4:2],,,,,,
{8}7h[4:2],,5,,3,3h[8:5],,,
{8}8h[4:1],,,,8,,2-6-3-5[4:3]/7,,
{8}6h[4:1],,,,7,7h[8:3],,,
{8}5h[4:3],,,,6,6,,,
{8}2h[4:2]/4,,5,,6,6h[8:5],,,
{8}8h[4:1],,,,1/7,,2/8pp2<6[4:3],,
{8}3h[4:1],,,,4,4h[8:3],,,
{8}5h[8:1],,,4/6,{16}4-1[8:1],5,{8}4,3b/4b,,
{16}2,,2xh[16:3]/1x,,,3h[16:3],,,4,,,5/4,,,5/6,,
{8}6b>3[8:1]/7b,,6/7-3-5[4:1],8,7/2-6[8:1],,2b,,
{16}7h[16:3],,,6h[16:3],,,5,,3h[16:3],,,2h[16:3],,,1,,
{8}1/8,B3/B7,1v6[8:1]/7v2[8:1],2V41[4:1]/6V47[4:1],,,,,
{16}1x,,2h[16:3]/4,,,1h[16:3],,,8,,,7/5,,,4/6,,
{8}3b<6[8:1]/5b,,3/2-5-8[4:1],1,7-3[8:1]/2,,7b>5[4:3],,
{8},,,,,,,7,
{8}7-3-6[4:1],,7/3,,4x>2[8:1]*<7[8:1],3/5,,,
{16}1x,,2/5h[16:3],,,6h[16:3],,,7,,,7/8,,,1/8,,
{8}2b/1b-5[8:1],,2-8<7-3[4:1]/1,3,2/6-4[8:1],,6b,,
{16}3xh[16:3]/4x,,,2h[16:3],,,1,,7h[16:3],,,6h[16:3],,,5,,
{8}4/5,B6/B3,3v2[8:1]/6v7[8:1],2V48[4:1]/7V51[4:1],,,,,
{16},2xh[16:3]/7xh[16:3],,,,,3,,3/4,,,2/5,,,1/6,,
{8}7b/8b-4[8:1],,8/7V53v1[4:1],6,7/2-6[8:1],,2b<4[4:3],,
{8},,,,,,,7,
{8}7-4-8[4:1],,7/2,,1-4[12:1]*-6[12:1],2/8,,,
{8}7hb[4:3],,E7,,E5,,E3,,
{8}1h[4:3],,E1,,E7,,E5,,
{8}3h[4:3],,E3,,E1,,E7,,
{8}5h[4:3],,E5,,E3,,E1,,
{8}4h[4:3],,E7,,E5,,E3,,
{8}2h[4:3],,E1,,E7,,E5,,
{8}8h[4:3],,E3,,E1,,E7,,
{8}6h[4:3],,E5,,E3,,E1,8,
{8}8,,,,1V72-6<4[4:6],,,,
{8},,,,,,,,
{8},,,,,,6h[4:3]/B6,,
{8},,,,,,,8,
{8}8,,,,7>4>4qq4pp4b[4:8],,,,
{8},,,,,,,,
{8},,,,,,,,
{8}3,3h[8:5],,5,5h[8:2],,,,
{8}5/4-2[8:1],,5,,5/6-8[8:1],,5,,
{8}5/4-1[8:1],,5,,5/6-1[8:1],,5,,
{8}5/4V68-2[4:3],,,,E1,,E7,,
{8}E5,,,,2h[4:1]/6h[4:1],,,,
{8}4/5-7[8:1],,4,,4/3-1[8:1],,4,,
{8}4/5-1[8:1],,4,,4/3-7[8:1],,4,,
{8}4/5V31-7[4:3],,,,E1,,E3,,
{8}E5,,,3/7,3h[4:1]/7h[4:1],,,,
{16}E3,E4,{8},B5/B6,,6h[4:1],,,4,
{8}4V28[4:2],,,,8V64[4:2],,E8,,
{8},,7h[4:1],,,,,,
{12}E6,E5,E4,{8}E3,,B8,,1/7,,
{16}E7,E6,{8},B3/B4,,2h[4:1],,,4,
{8}4V68[4:2],,,,8V24[4:2],,E2,,
{8},,1h[4:1],,,,,,
{12}E3,E4,E5,{8}E6,,B7,,6h[4:1],5,
{8}5V38[4:2],,,,7-2-4[4:2],7,,,
{8}6V84[4:2],,,,5-1-7[4:2],5,,,
{8}3h[4:4],,,,4,4,,,
{8}6h[4:3],,,,5,5,,,
{8}1-4[4:1],,4-7[4:1],,6-3-8[4:2],6,,,
{8}5-8-3[4:2],,,,4-1-6[4:2],4,,,
{8}5,,B5,,4,4h[8:3],,,
{8}B8,,,1,1-6[8:1],,1>8[4:3]/3,,
{8}5h[4:3]/1,,,,,,,{32}A1,A2,A3,A4,
{8}A5/7xb,,,8,8-3[8:1],,8<2[8:6]/1,,
{8}8/7h[4:3],,,,,,,{24}6x,5x,4x,
{8}3x/1,,,5,5-2[8:1],,5<4[4:3]/6,,
{8}5/3h[4:3],,,,,,,{32}A5,A6,A7,A8,
{8}A1/5,,,4,4-8[8:1],,4>6[4:3]/5,,
{8}4/3h[4:3],,,,,,,{24}2x,1x,8x,
{8}7x/5b,,,1/7,1-5[8:1]/7-5[8:1],2/6,1/7>5[4:3],,
{8}7/3h[4:3],,,,,,,{32}A6,A7,A8,A1,
{8}A2/4b,,,2/5,2-4[8:1]/5-1[8:1],3/6,2<4[4:3]/5,,
{8}2/3,3h[8:5],,,,,,{24}2,1,8,
{8}7/4b,,,3/5,3v8[8:1]/5v8[8:1],2/6,3<1[4:3]/5,,
{8}3/7h[4:3],,,,,,,{32}A2,A3,A4,A5,
{8}A6/8b,,,2/6,2-5[8:1]/6-1[8:1],3/7,2/6>8[4:3],,
{8}6/7h[4:3],,,,,,,{24}6,5,4,
{16}3/8b,,,,,,2/7,,1-4[8:1],1,8,,1b/8b,,7h[4:1],,
{16},,5-2[8:1],,,6,5,,7h[16:3],,,4,5,,3,3,
{16}4-1[8:1],5,,,4b,,6,6,5-8[8:1],4,,,5b,,,,
{16}2-5[8:1],,,1,2,,8,,7-4[8:1],,,8,7,,1,,
{16}2/8,,3/7,,4/6-3[8:1],,3/7,,2,1,8h[8:1],,6,,1h[4:1]/7,,
{16},,4-7[8:1],,,3,4,,2h[16:3],,,5,4,,7,7,
{16}6-1[8:1],5,,,6b,,2,2,3-8[8:1],4,,,3bqq5[8:5],,,,
{16},,,,,,,,,,,,,,7,,
{16}7V51[4:1],,,7/3,,,4,,4w8[8:1],,2/6,,4b,,,,
{16}B8/B3,,1x/2x-6[8:1],,,1,2,,8h[16:3],,,4,6,,5,5,
{16}4-8[8:1],3,,,4b,,3,3,4-8[8:1],5,,,4b,,6,,
{16}7-3[8:1],,,8,7,,1,,2-6[8:1],,,1,2,,8,,
{16}8,,7v4[8:1]*pp8-5[8:5]/5,,7,,,,,,4x-1[8:1],,,,,,
{16},,2h[16:3],,,4,3,,7h[16:3],,,5,6,,4,4,
{16}3-7[8:1],2,,,3b,,5,5,6-2[8:1],7,,,6b,,7pp4[8:5],,
{16},,,,,,,,,,,,,,1,,
{16}1-4[8:1],,,1/7,,,5,,5<8[8:1],,6,,{32}1b/A5f,2,3,4,,,,,
{4}E4,5,E3/7,1,
{4}E2,3,B3/5,7,
{4}B6,1,3/E5,5,
{4}E8,7,1/E6,3/E7,
{4},5,3/B6,1,
{4}E1,7,5/B3,3,
{4}B3,1,7/E5,5,
{4}E1,3,1/E5,7h[4:5]/E3,
{4},,,,
{8}C,,,,,,,,
