&title=cedersphere
&artist=socer
&first=2.432
&des=Lushan(怀旧服2004)
&lv_5=13
&inote_5=(110)
{8},,,,4h[16:13]/6>3[8:3],,,,,,
{16},2,3,,2h[16:13]/4>1[8:3],,,,,,,,,,,,,8,1,,8h[4:1]]/2<7[8:3],,,,,,6h[16:7],,,,,,
,7,6,,4h[16:13]/8<5[8:3],,,,,,,,,,,,,3,4,,
2>5[6:1]/5,,,,,,6h[4:1],,,,,,7,5,3,,7<4[6:1]/4,,,,,,3h[4:1],,,,,,2,4,6,,
2>5[6:1]/5,,,,5,,6h[4:1],,,,,,2,6,4,,7<4[6:1]/4,,8,,4,,3h[4:1],,,,5,,1,7,3,1,
{8}2-5[32:3]/4,8/6-3[8:1]*-1[8:1],2,,,2,84,,
7-4[32:3]/5,1/3-6[8:1]*-8[8:1],7,,,7,15,,
3-8[32:3]/1,5/7-2[8:1]*-4[8:1],3,,,3,51,,
6-1[32:3]/8,4/2-7[8:1]*-5[8:1],6,,,48,{16}6b,2b,6,,
{8}2-5[32:3]/8-5[32:3],4<7[8:1]/6>3[8:1],28,,,1,{16}73,2,6,,
{8}7-4[32:3]/1-4[32:3],5>2[8:1]/3<6[8:1],71,,,8,{16}26,7,3,,
{8}2>5[32:3]/8<5[32:3],4-1[8:1]/6-1[8:1],28,,,5,{16}73,2,6,,
{8}7/1>4[8:1],2,5<8[8:1]/1,6,{16}5/1-6[8:1]*-4[8:1],1,1,,1b>4[4:1],,,,1,,,,
7h[8:1],,5h[8:3],,,,,,2,5,7,4,
8-3[32:3],,2<7[8:1],4,8,,5,,4-1[32:3],5,3h[8:1],,4,,,,
1-5[8:1],,7,3,1,,2,31,6,57,6,,2,8,4h[8:1],,
{16}6h[8:1],,8,,3h[16:1],4,,1h[16:1],8,,6h[16:1],5,{32}4-8[32:3],5,3,,4,,4,,
{16}2>5[4:1],,3,,6,,,,7-3[8:1],,8,,5-1[8:1],,,,
7<4[4:1],,6,,3,,2,1,2-6[8:1],,4,,4-8[8:1],,,,
2>5[4:1],,3,,6,,7,8,7-3[8:1],,5,,5-1[8:1],,,,
8>3[8:1],,6,,4<7[8:1],,5,,8-3[8:1],1,2-7[8:1],,8,,2,,
5,,6h[4:1],,2,,5,5,7>2[8:1],3,5,,7<4[8:1],5,,,7,,3,,3h[8:1],,4,4,2,,6,,1-4[8:1],28,,,
17,,6<1[6:1],6,4,,2h[4:1],,,,,,5-8[8:1],46,,,5>2[8:1],,4,,5<8[8:1],,7,,1-6[8:1]/5-2[8:1],2,3,,5b/1b,,,,
1,5,3,7,1,5,2,6,1-4[32:3],5,3-8[32:3]*-7[32:3],,1,,,,
5-8[32:3],,7-4[32:3]*-3[32:3],,5,,,,2,6,4,8,2,6,2,6,
4,8,2,6,4,8,3,7,4>1[32:3],8,2-5[32:3]*-6[32:3],,4,,,,
8-5[32:3],,6-1[32:3]*-2[32:3],,8,,,,3,7,1,5,3b,7b,3b,7,
1,5,3,7,1,5,2,6,1-4[32:3]*-6[32:3],7,5-8[32:3]*-2[32:3],,1,,,,
1>4[32:3]*<6[32:3],,5-1[32:3],,1,,,,2,8,4,6,2,2,2,6,
4,8,2,6,4,8,3,7,4-7[32:3],6,2,,4,,2,2,
2/8-3[8:1],,4-7[8:1]/6,,8,,4,,3-7[8:1],,1b/5b,,7>2[4:3]/3<6[8:1],5b,,,3b,
