&title=烈華RESONANCE
&artist=REDALiCE/Kobaryo
&first=0.04
&lv_5=14+
&des_5=刻于晴空玉衡星
&inote_5=
(240){4},{1},{4},,,{2}6b/2b,
{4}7-4[8:1]/3-8[8:1],3/7,
,{8}4,3,{4}2,1-5[8:1]/8-4[8:1],
,3,2,1/8,
7,{8}6,5,{4}6,6,
{2}3b/7b,{4}2-5[8:1]/6-1[8:1],6/2,
,{8}8,7,{4}6,4/5,
{16}2,3,4,5,6,7,8,1,2,3,4,5,6,7,8,1,
2/7,6,5,4,3,2,1,8,7,6,5,4,3,2,1,8,
{8}7/2V48[4:1],{4},{8}5,{4}5,5V73[4:1],
,{8}2,2,{2}4-8-6[4:1],
{4},{8}2,2,{4}4-1[4:1],1-6[4:1],
6-3[4:1],3-8[4:1],{2}8-5[4:1],
{8}2,2,2/4x,2,2,2,8x/2,2,
7,7,7/5x,7,7,7,1x/7,7,
{16}1,8,1,8,1x,8,1,8,2,7,2,7,2x,7,2,7,
3,2,1,8,5x,6,7,8,2,3,4,5,8,7,6,5,
{1}4/Ch[4:7],
{4}7h[8:1],6h[8:1],5-1b[8:1],5b,
2-4[16:1],8-6[16:1],1-3[16:1],7-5[16:1],
2V48[4:1],8V62[4:1],{2}2-5[8:1],
{4}6-8[16:1],4-2[16:1],5-7[16:1],3-1[16:1],
6-8[16:1],4-2[16:1],1bw5b[8:1],1b,
7-1[16:1],3-5[16:1],6-8[16:1],2-4[16:1],
7V13[4:1],3>7[4:1],4-8[8:1],4,
6-8[16:1],2-4[16:1],5-7[16:1],1-3[16:1],
{16}5,6,7,8,{8}1,{16}4,3,{8}2/5xw1[8:1],5x,{4}5x,
{8}3,3,5,5,4-2[16:1],4,6-8[16:1],6,
3,3,1,1,2-4[16:1],2,8-6[16:1],8,
5,5,7,7,1,1,3,3,
{4}1x/C,{8}7x/C,2x/C,,6x/C,,3x/Cf,
2-4[16:1],1-5[16:1],2,1,8-4[16:1],7-5[16:1],8,7,
2,3,4/7,6,5/2,3,4/7,6,
{4}5xh[8:1]/2xh[8:1],7xh[8:1]/4xh[8:1],1xh[8:1]/6xh[8:1],8xh[8:1]/3xh[8:1],
{8}1h[8:1],2h[8:1],3h[8:1],7h[8:1],6h[8:1],5h[8:3],{4},B3/E3,
B4/E4,B5/E6,B6/E7,
{2}4h[2:1],{4}B6/B7,3,
{2}5h[8:1]/4h[4:1],{4}B7/B6,4,
5,6,B7/B6,3h[4:1],
{2}4qq8[4:3],B7/B6,
,{4}B2/B3,6,
{2}4h[8:1]/5h[4:1],{4}B3/B2,6,
{8}1,2,3,4,8,7,6,5,
{16}3,4,{8}3,7/2,{16}6,5,{8}6,{16}7,8,{8}7,1,
{1}8-4-7-5[2:1]/2-4[8:1],
3z7[2:1]/4V61[2:1],
{4}6,2-6[8:1],2/8z4b[8:1],8/1,
3,7-3[8:1],7/1s5b[8:1],1/8,
{6}6x,6x,6x,2x/4x,2x/4x,2x/4x,
{8}1,1,5,5,{32}1,2,3,4,5,6,7,8,1,2,3,4,5,6,7,8,
{4}1,7/5,8/1,2/4,
{8}6/Cfh[1:1],{4},{8}8,{2}8bh[2:1],
{4},B7/E8,{8}B2,B3,{4}B4,
,B1/E2,E4/B4,B6/E6,
B2,B1,B8,B7,
{1}E7/B6/B3/E3/Cf,
{4}E8,E7,E6,E5,
E2,E3,E4,E5,
{2}E7/B6/E6/B5,E3/B3/E4/B4,
{1}B8/B7/B1/B2/Cf,
{4}5x<8[2:1],B5,B6,B7,
4x>1[2:1],B4,B3,B2,
8x<5[2:1],B8,B7,B6,
1x>4[2:1],B1,B2,B3,
5<7[4:1],5,4-8[4:1],4,
5-1[4:1],5,4>2[4:1],4,
{1}C,
{4}2x/7x,{8}1,2x/7x,,8,{4}7x/2x,
3/5,{8}8,7,{4}6/4,{8}1,2,
{4}3/5h[4:1],{8}7,7,,1h[8:3]/8h[4:1],{4},Cf,
{8}2,2,,1,,2h[8:3]/8h[8:3],
{2},{8}2h[8:1],4h[8:1],6h[8:1],8h[8:1],
{4}Cf,{8}5,6,{4}7/1,{8}4,3,
{4}2/8h[4:1],{8}6,6,,5,4,5,
{2}4xh[4:1]/Cf,7xh[4:1]/Cf,
1xh[4:1]/Cf,8xh[4:1]/Cf,
{4}2b-6-4-8-4-6-2[4:5],7,7,7,
1,1h[8:1],{2},{4}7-3-5-1[8:5],
2,2,2-6[8:1],
{2}2b,{32}B8,B7,B6,B5,B4,B3,B2,B1,{4}B8/E8/E1,
{8}4,4,5,5,3,3,6,6,
2,2,3/1,3/1,8,8,7/1,7/1,
{6}2h[12:1]/4h[12:1],5h[12:1]/4h[12:1],5h[12:1]/7h[12:1],1h[12:1]/8h[12:1],2h[12:1]/4h[12:1],5h[12:1]/7h[12:1],
{24}1,2,3,4,5,6,7,8,1,2,3,4,5,6,7,8,1,2,3,4,5,6,7,8,
{1}1/Cfh[1:1],
{4},{8},2x/8x,{2}2x/8x,
{4}1/7,{8}8-4[8:1],1,{4}2/8x,{8}1-5[8:1],8,
{4}1x/7-3[8:1],{8}7,4-8[8:1],,4,,6,
{4}7<4[8:1],{8}7,2bq6b[8:1],,2b/8bw4b[8:1],,8b,
,6x,{4}6x,{8}3,2,1-5[8:1],8,
{4}7/1x,{8}8-4[8:1],1,{4}8x/2,{8}3-7[8:1],4,
{4}3x/5-8[8:1],{8}5,2-4[8:1],,2-8[8:1],5-7[8:1],2,
{4}5-1[8:1],5/3-7[8:1],3/8-4[8:1],2qq5b[4:3],
{8}2,{4},{8}6-1[8:1],{2}6,
{8}7-3[8:1],7,1-5[8:1],1,8-4[8:1],8,2-6[8:1],2,
7-4[8:1],7,1-5[8:1],1,8-4[8:1],8,2-5[8:1],2,
7-4[8:1],7,2,2bq6b[8:1],,2b/8bw4b[8:1],,8b,
{4},{8}6x,6x,4,3,2,1,
{4}8,{8}2-5[8:1],2,8-4[8:1],8,1-5[8:1],1,
7-4[8:1],7,2-5[8:1],2,{4}8,{8}1,1,
{24}1/7,6,5,4,3,2,1,8,{6}7,{24}2,3,4,5,6,7,8,1,{6}2,
{24}8,7,6,5,4,3,2,1,8,7,6,5,4,3,2,1,8,7,6,5,4,3,2,1,
{1}8/Cf,
{8}5xpp1[4:3],{4},{8}A4,E4,B3,{4}B2,
,B7/E7,B5/B4,E3/B2,
1xpp5[4:3],{8}E1,B8,B7,E7,{4}A6,
{8}8x-6-4-8[2:1],{4},{8}B2,{2}E4,
{4}1x-3-5-7-3[2:1],{8}B7,B6,{2}B5,
{4}5x-1[4:1],B3/E4,4x-8[4:1],B6/E6,
7xh[4:1],5xh[4:1],3xh[4:1],1xh[4:1],
7,{8}7,5,{4}7,{8}7,5,
{4}7,7/4,7/3,7/2,
7x/1x,{8}1,6x,1,6x,1,6x,
{4}1,1,{8}1,8,1,8,
2,2,4,4,6,6,8,8,
{16}1,2,3,4,5,6,7,8,1,2,3,4,5,6,7,8,
{1}1/Ch[1:1],
{6}3,3,3,{24}3-7[8:1],4,5,6,7,8,{4}1,
2x/8x,{8}1-5[8:1],8,{4}7/1x,{8}8-4[8:1],1,
{4}8x/2-6[8:1],{8}2,5-1[8:1],,5,,3,
{4}2>5[8:1],{8}2,7bp3b[8:1],,7b/1bw5b[8:1],,1b,
,3x,{4}3x,{8}6,7,8-4[8:1],1,
{4}2/8x,{8}1-5[8:1],8,{4}1x/7,{8}6-2[8:1],5,
{4}6x/4-1[8:1],{8}4,7-5[8:1],,7-1[8:1],4-2[8:1],7,
{4}4-8[8:1],4/6-2[8:1],6/1-5[8:1],7pp4b[4:3],
{8}7,{4},{8}3-8[8:1],{2}3,
{4}2/5,{16}3,4,3,4,{4}3,{16}6,5,6,5,
{4}6,{16}7-3[8:1],8,6,1,{8}7,2,{16},,,3,
4,3,6,5,6,8,7p3b[8:1],8,{8},7b/1bw5b[8:1],,1b,
,3x,{4}3x,{8}5,6,7,8,
{16}2,1,2,1,{8}3x/8x,8x/3x,{16}6,5,6,5,{8}7x/4x,4x/7x,
{16}3,4,3,4,{8}2x/5x,2x/5x,{16}7,8,{8}7,{16}1x,8x,1x,8x,
{24}1x,2,3,4,{12},{24}8,7,6,5,{12},{24}1,2,3,4,{12},{24}8,7,6,5,{12},{24}1,
2,3,4,5,6,7,8,1,2,3,4,8/5,7,6,5,4,3,2,1,8,7,6,5,
{1}4/Cf,
,{4}2-5[8:1]/1-4[8:1],
2/1,7-4[8:1]/8-5[8:1],7/8,
{16}1x,2x,3x,4x,{32}5xw1[8:1],6x,7x,8x,1x,2x,3x,4x,{2}5x,
