&title=Customized Justice
&artist=Kobaryo
&first=0
&des=AmieXZ
&clock_count=4
&lv_5=14+
&inote_5=(292)
{1},,
{8}3,4,3,4,3,6,5,6,5,6,3,4,3h[4:1],,,,
7,5,7,3,5,3,5,3,7>6[8:6],5h[8:1],,,,,,,
2h[1:2],,,,,,,,,,,,,,,,6,,2/6>4[4:1],,,,,,3-5[4:1],,
3/7-1[4:1]*-5[4:1],,,,,,
2h[1:2],,,,,,,,,,,,,,,,4,,2-4[4:1]/4,,2,5,,5h[8:1],,,
4-2[4:1]/6,,4/6-8[4:1],,6,,
1V35[8:4],,1,,7,,7,,
6V82[2:1],,6,,4,,4,,
5V31[2:1],,5,,7,,7,,
6V42[2:1],,6,,1,,1,,
8-4[4:1],,8b,,6-8[4:1],,6b,,
2-5[4:1],,2/1b,,6-2[4:1],,6b,,
4,4,1,1,3,3,8,8,2,2,7,7,
{12}1,8,1,8,1,,
{8}2b/7b>7[8:10]*<7[8:10],,,,,,,,,,,,,,,,
{12}7,1,7,
{16}1,6,5,,
{8}2,,
1/8,2/7,3/6,4>1[4:1]/5<8[4:1],,4/5,,,,,2b/7b,,
6,1,7,8,6<1[4:1],,2,,2,,3/4,,3/4,,
7,4,6,5,7<4[4:1],,3,,3,,2-6[4:1]/1p4[4:1],,2/1,,,,3/7,,
6,4,7,3,6>3[4:1],,2,,2,,1/8,,1/8,,
7-3[4:1],7,8,,1-5[4:1],1,8,,
7V53[4:1],,3-7[4:1],,2,,2,,
1h[2:1],,,,5,2,4<7[4:1],,1-3[4:1],,1<4[2:1],,,,,,
3h[2:1],,,,5,4,6>3[4:1],,8-6[4:1],,8>5[2:1],,,,,,
6,6,8,7,1,6,8>3[4:1],,7,,7,,5,,5b/6b,,
{16}6,,2,3,4,,7,,2,3,4,,
{8}8,8,8-4[16:7],,,,1,1,1h[4:1],,5>5[8:14],,,,,,,,,,,,,,,,
3>3[8:14],,,,,,,,,,,,,,,,
7,,7,,7,,7,3<5[4:1],7,,7,,7,,7,4<6[4:1],7,,7,,7,,
7,5v4[4:1],7,,7,,7,,
{12}4,5,4,
{8}6<6[8:14],,,,,,,,,,,,,,,,2>2[8:14],,,,,,,,,,,,,,,,
6,,6,,6,,6,2>4[4:1],6,,6,,6,,6,3,6,5,5,6,6,
4,4,7,7,3,
{12}3,8,1,8,1,8,
{8}1,2>2[8:23]/7>6[8:23],,,,,,,,,,,,,,,,,,,,,,,,,,,,,
4h[8:1]/5h[8:1],,,,
5/6,,4/7,,6,5,6,,4,5,4,,7,5,7,,3,5,3,,
6,4,6,,2,4,2,,7,1,7,,2/6s2[2:1],,,,
4,,3,,3<1[2:1],,,,,,,,
7,7,5,5,6,6,4,4,5,,3/4,,2/5,,5/6,,
4/7h[1:2],,,,5,,,,3,,,,5,,,,2,,2,,2,,2,,
7,7,5,6,5,7,
{16}7,4,3,2,
{8}1h[8:14]/5,,,,,,,,,,,,,,
5,,5h[8:8]/1,,,,,,,,
{12}3,4,3,
{8}5,4,5,3,4,,2h[8:14],,,,,,,,,,,,,,
5,,2-4[4:1]/5h[8:7],,,,,,6-3[4:1],,,,
7,,7,,7,,
2h[2:1]/6,,,,5,,,,7h[2:1]/3,,,,4,,,,
2h[2:1]/5,,,,3,,,,7h[2:1]/4,,,,6,,,,
7,,7,,5,,5,,6,,6,,4,,4,,
5-1[4:1],,5/2,,3,3-7[4:1],,
3qq5[8:5]/6pp4[8:5],,,,,,,,,
3/6h[8:16],,,,,,,,,,,,,,,,5,,5/6,,
6,,5-1[4:1]/7,,8<4[2:1]*>4[2:1],,,,,,,,
3h[2:1]/5,,,,4,,,,6h[2:1]/4,,,,5,,,,4/7,,4/7h[4:1],,
5,6,4,,4/7-4[4:1],,,,3,,2,,
1,1,7,7,
{16}2,3,4,8h[16:5],,,,,
5,,5,,7,,7,,4,3,2,6h[16:5],,,,,
1,,1,,5,,5,,2,3,4,7h[16:5],,,,,
5,,5,,8,,8,,3,2,1,6h[384:1],,,,,
{8}3/5h[6:1],,,7/5h[6:1],,,3/4h[6:1],,,
7/5h[6:1],,,2/3h[6:1],,,7/8h[6:1],,,
6-1[6:1],,3-6[6:1],,8-5[6:1],,4-1[6:1],,
6-1[6:1],,3-8[6:1],,,5b<5[8:11],,,,,,,,,,,,,,,,,
2/7,,
{16},4,5,,
{8}2/7,,6,6,4,4,,
{16}3/6,2/7,
{8}1/8-4[6:1],,1b/8b,,
2,2,7,7,5,5,
{16}6,,6,,1,2,3,4,5-1[4:1]/8,,,,
1-5[4:1],,,,,6,7,8h[16:5],,,,,
4,,4,,6,,6,,3,,3,,8,7,6,5,4-8[4:1]/1,,,,
8-5[4:1],,,,2h[8:1],,,,2h[8:1],,,,
5,,5,,
{12}3,4,3,
{16}7,6-2[5:1],5,,2<7[4:1],,,,
3,,,3h[6:1],,,,,3,,,,
{8}4/8,,5/7,,4/8,4>8[16:5]/8<4[16:5],,4/8,,,,,
1/5,,1/5,,
2,2,7,7,5,5,
{16}6,,6,,4,3,2,1,8-4[4:1]/5,,,,
4-8[4:1],,,,,5,6,7h[16:5],,,,,
1,,1,,6,,6,,2,,2,,5,6,7,8,1-5[4:1]/4,,,,
5-8[4:1],,,,2h[8:1],,,,2,,,,
8,,8,,
{12}4,3,,
{16}7,6-2[5:1],5,,2<7[4:1],,,,
3,,,3h[8:1],,,,,3,,,,
{8}4/8,,5/7,,4/8,4V28[16:6]/8V64[16:6],,4/8,,,,,
1/5,,1/5,,1/5h[2:1],,,,3,,2h[2:1]/4,,,,6,,5/7h[2:1],,,,
5,,5,,4/6h[4:1],,4,,3h[4:1]/5,,4,,
2h[4:1]/5,,6,,4/7h[4:1],,5,,6,,4,,
3h[4:1]/5h[4:1],,,3h[4:1]/5h[4:1],,,
4h[4:1]/7h[4:1],,,4h[4:1]/7h[4:1],,,
5/6,,5/6,,4V27[8:10]/7<8[8:10],,,,,,,,,,,,,,,,
4h[1:2],,,,,,,,,,,,,,,,7,,7h[8:6],,,,,,1-3[8:1],,,,
8b-4[6:1],,8b,,
2,2,6,6,
{16}2,3,4,5,7,,7,,1,2,3,7,6,5,4V68[3:1]/1,,,,8,,,,
1-5[6:1],,1,,,,8,,,,7,,7>2[4:1]*<4[4:1],,,,7,,,,,,,,,,
2/4,,,,3/5,,,,
{16}6,,6,,4,,4,,7,6,5,4,
2-5[5:1],,2-7[5:1],,,,,,,,,,1,,1,,
7,,7,,3,,3,,5,,5,,
2,3,4,5,7-4[5:1],,7-2[5:1],,,,,,,,,,
8,,8,,2,,2,,6,,6,,2,3,4,,7,,7,,1,2,3,,
8-4[8:1],,,,2-5[8:1],,7,,7-3[5:1],,,,7/1,,,,
{8}8,,1,,2/5,2pp5[16:12]/5pp8[16:12],,2b/5b,,,,,,,,,
7h[8:22]/4,,,,,,,,,,,,,,,,5,,,,5,,,,
{12}6,5,6,
{16}4,,4,,7,6,5,,
{12}3,4,3,
{16}5,,5,,2,3,4,,
{12}6,5,6,
{16}4,,4,,5,6,7,,
{12}2,1,2,
{16}8,,8,,4,3,2,,
{12}7,8,7,
{16}1,,1,,5,6,7,8,2,,,,
{8}3h[4:1]/1h[4:1],,,3h[4:1]/1h[4:1],,,
3h[4:1]/5h[4:1],,,3h[4:1]/5h[4:1],,,
4/6,,7,6/8,,3,2/4,,8,1-5[6:1]/7,,1/7-4[6:1],,7,,
3-7[6:1],,3/4,,5,
1h[4:1],,,,1h[4:1],,,,
7h[4:1]/1h[4:1],,,,7h[4:1]/1h[4:1],,,,
{16}1,2,3,7,6,5,1,2,3,7,6,5,
2,3,4,8,7,6,2,3,4,8,7,6,5,3,2,1,
8-4[6:1]/4<6[6:1],,,,
{4}4b/8b,,,,,,,,,,,,,,,,,,,
E
