&title=三日月ステップ 2023
&artist=r-906
&first=0
&des=嗚呼、粗末なアイロニー
&lv_6=13+
&inote_6=(167){1},
{16},,,,,,,,,,,,4,5,4,5,
3h[8:1],,,,3h[8:1],,,,2h[8:1]/4h[8:1],,,,2h[8:1]/4h[8:1],,,,
1h[8:1]/5,,4,,4-6[8:1],,,,2,,2-4[8:1],,,,,,
6h[8:1],,,,6h[8:1],,,,7h[8:1]/5h[8:1],,,,7h[8:1]/5h[8:1],,,,
8h[8:1]/4,,3,,2-8[8:1],,,,5,,4-6[8:1],,,,,,
3h[8:1],,,,3h[8:1],,,,2h[8:1]/4h[8:1],,,,2h[8:1]/4h[8:1],,,,
1h[8:1]/5,,4,,4-8[8:1],,,,2,,2-5[8:1],,,,,,
6h[8:1],,,,6h[8:1],,,,7h[8:1]/5h[8:1],,,,7h[8:1]/5h[8:1],,,,
48,,3,4,3,,2,,1-5[8:1],,1,,6,,7,,
8,,,,8x,,,,8,,,,8x,,1h[4:1],,
,,4,,4-8[8:1],,,,2,,2V46[16:3],,,,,,
8,,,,8x,,,,8,,,,8x,,2h[4:1],,
,,3,,3-7[8:1],,,,1,,1V35[16:3],,,,,,
8,,,,8x,,,,8,,,,8x,,3>6b[8:3],,
,,5,,5,,5,,4,,4,,35,,,,
8,,,,8x,,,,8,,,,8x,,3h[4:1],,
,,4,,2,,15,,6^1[16:3],,6,,2,,3,,
4h[16:3],,,6,5,,7,,7h[16:3],,,3,4,,2,,
1/5-1^8-4[2:1],,,,4,,,,3,,,,2,,,,
1h[16:3],,,4,3,,7,,7h[16:3],,,5,6,,4pp4[8:3]*qq4[8:3],,
4,,,,,,,,,,1x/7x,,1x/7x,,,,
8h[16:3],,,3,4,,2,,2h[16:3],,,6,5,,7,,
8^5[8:1],,,,3^8[8:1],,,,6^3[8:1],,,,1-5[8:1],,,,
8,,8,,37,,37,,2/6V82[16:3],,,,1,,4h[4:1],,
,,3,,1-5[8:1],,7,,5b/E1/E2/B1,,,,,,,,
3-8[8:1]/8-4[8:1],,,,8/3^6[8:1],,,,1,,2,,3,,4h[4:1],,
,,1-5[8:1],,8,,7,,6-4[8:1],,6-8[8:1],,,,,,
3-8[8:1],,3,,1,,7,,5-1[8:1],,5,,8,,2pp5[2:1],,
,,6,,6v1[8:1],,,,,,,,37,,,,
2^7[8:1],,2,,6^3[8:1],,6,,8z4[4:1],,,,5,,6,,
7,,8,,2-4[8:1]/6-8[8:1],,,,2xv5[8:1]/6xv1[8:1],,,,2x/6x,,,,
,,37,,3^6[8:1]/7,,,,8h[4:1],,,,1,,2/7^1[8:1],,
,,3^5[8:1],,,,6,,,,12,,12,,,,
8b-4[8:1]/4b^1[8:1],,,,8/4^7[8:1],,,,8,,1,,2,,3h[4:1],,
,,1,,48,,57,,6-4[8:1],,6-8[8:1],,,,,,
2-5[8:1],,2,,7,,8,,1-5[8:1],,4>6[4:1],,1,,4,,
,,4pp8[8:3],,4,,,,,,1x,,1x,,,,
2^7[8:1],,2,,6^3[8:1],,6,,8z4[4:1],,,,5,,6,,
7,,8,,2-7[8:1]/6-3[8:1],,,,2xv5[8:1]/6xv1[8:1],,,,2x/6x,,,,
48,,3,,25,,1,,7/8V25[4:1],,6,,6,,6,,
7,,,,7x,,,,7,,7x/8x,,1x/6x,,,,
2h[16:3],,,4,3,,5,,7h[16:3],,,5,6,,4,,
3,,2,,1-7[8:1],,,,5,,4-6[8:1],,,,,,
2h[16:3],,,4,3,,5,,7h[16:3],,,5,6,,4,,
2,,3,4,3,,2,,1-5[8:1],,1,,6,,7,,
8h[1:1],,,,,,,,,,,,,,,,
6z2[2:1],,,,,,,,,,,,,,,,
1h[1:1]/8,,,,,,,,,,,,,,,,
4pp4[2:1]*qq4[2:1],,,,,,,,,,,,,,,,
6h[8:1],,5h[8:1],,7h[8:1],,B5,B4,6h[8:1],,5h[8:1],,4h[8:1],,3-5-2-6[8:5],,
,,,,,,,,,,,,,,,,
3h[8:1],,4h[8:1],,2h[8:1],,B4,B5,3h[8:1],,4h[8:1],,5h[8:1],,6,,
6^3[8:1],,,,,,,,1,8,1,8,27,,,,
3^8[8:1],,,4,3,,5,,6^3[8:1],,,8,6,,1,,
2-6[8:1],,2,,6,,,,8-4[8:1],,8,,4,,,,
6^1[8:1],,,5,6,,4,,3^6[8:1],,,1,3,,8,,
8V24V28[8:3]*V64V68[8:3],,,,,,,,,,,,C,,,,
1h[8:1]/5h[8:1],,,,2h[8:1]/6h[8:1],,,,3h[8:1]/7h[8:1],,,,4h[8:1]/8h[8:1],,,,
5^2[8:1],,5,,7,,6,,5^8[8:1],,5,,3,,4,,
5,1,5,1,4,8,4,8,3,7,3,7,2,6,2,6,
1h[4:3],,,,,,,,,,,,,,,,
3h[8:1],,,4,3h[8:1],,4,,2h[8:1],,,4,2h[8:1],,4,,
1^4[8:1],,1,,6,,7,,8^5[8:1],,8,,5,,4,,
3h[8:1],,,4,3h[8:1],,4,,2h[8:1],,,4,2h[8:1],,4,,
4pp4[4:1],,,,3qq4[4:1],,,,,,7x,,7x,,,,
6h[8:1],,,5,6h[8:1],,5,,7h[8:1],,,5,7h[8:1],,5,,
8^5[8:1],,8,,3,,2,,1^4[8:1],,1,,6,,7,,
58,,4,,36,,2,,1/4-8[8:1],,3^1-5[4:1],,4,,3,,
,,6,,8,4,8,4,2b-7[8:1]`6b-3b[8:1],,,,,,,,
6-1[8:1]/1-5[8:1],,,,1/6V42[16:3],,,,7,,6,,5,,4-8[8:1],,
3,,4,,2-6[8:1],,1,,2,,8,,17,,2/6^3[8:1],,
,,1h[4:1],,,,4,,35,,46,,78,,1/6pp1[2:1],,
,,2,,2v5[8:1],,,,,,,,4/8-4[8:1],,,,
2-6[8:1]*-5[8:1]/8,,,,2,,,,7-3[8:1],,7,,8,,1,,
2^7[8:1],,2,,3,,4,,5-2[8:1],,5-8[8:1],,,,,,
3,,3-6[8:1],,5,,3,,7,,7h[8:1],,4,,56,,
,,E4,,,,E6,,3,4,3,4,2,5,2,5,
1xw5[8:1],,,,1b,,,,7-4[8:1],,6,1,7,,2,,
3-6[8:1],,2,4,3,,7,,8x-5[8:1],,8x-3[8:1],,8x,,8x,,
,,2h[4:1]/6h[4:1],,,,,,1-5[8:1],,6<4[4:1],,1,,6,,
,,6qq3[8:3],,6,,,,,,8x,,8x,,,,
2-5[8:1],,1,,7-3[8:1],,8,,4^1[8:1],,5,,6,,7h[4:1],,
,,8,,16,,25,,3/4-7[8:1],,1-5[8:1],,4,,1,,
,,6,,74,,8,,2/1-7v4[4:1],,3,,3,,3,,
2-6[8:1],,,,6,,,,8,,17,,2-5[8:1]/6-1[8:1],,,,
2b/6b,,,,3-8[8:1]/7-4[8:1],,,,37,,,,1-4[8:1]/5-8[8:1],,,,
1/5qq2[8:3],,,,6,,6,,,,1,,8,,7,,
6^1[8:1],,6,,3,,4,,5-1[8:1],,8<2[4:1],,5,,8,,
,,8<2b[4:1],,8,,6,,,,7,,1^4[8:1]/5^8[8:1],,,,
1b/5b,,,,3^8[8:1]/7^4[8:1],,,,37,,,,2^5[8:1]/6^1[8:1],,,,
2/6V41[16:3],,,,1,,7,,,,5,,46,,37,,
2^7[8:1],,2,,6,,5,,4-8[8:1],,1>7[4:1],,4,,1,,
,,1>7b[4:1],,1,,3,,,,8,,2-5[8:1]/6-2[8:1],,,,
2^7[8:1]/6^3[8:1],,,,,,,,1^4[8:1],,3,,15,,7,,
8^5[8:1],,6,,48,,2,,1-5[8:1],,7-3[8:1],,1,,7,,
4,,4,,17,,26,,3-7[8:1],,6>8[4:1],,3,,6,,
,,5qq1[8:3],,5,,,,,,6x,,6x,,,,
7^2[8:1],,8,,4-8[8:1],,3,,7^4[8:1],,6,,2-6[8:1],,1,,
5^8[8:1],,4,,53,,2,,1v6[8:1]*v4[8:1],,,,1,,,,
,,73,,7-4[8:1]`3-8b[8:1],,,,37,,,,15,,3/7,,
,,26,,,,5/1-4-6[4:1],,,,8,,7w3b[8:1],,,,
7b,,,,
