&title=噓ミーム
&artist=ピノキオピー
&first=0.07
&des=噓チャート
&lv_5=13
&inote_5=(126){1},
{1},
{4},,,C,
{16}8x,1,7,5,6,3,5,2,4h[4:1],,,,,,,,
{16}8,1,7,5,6,3,5,2,4h[4:1],,,,A1/D2,,,,
{16}8,6,7,5,6,3,5,2,4h[4:1],,,,,,,,
{16}8,6,7,5,6,3,5,2,4h[4:1],,Ch[8:1],,,,,,
{16}5,,,,5,,2,4,3h[4:1],,,,6,2,7,1,
{16}8,6,7,5,6,3,5,2,4h[8:1],,,,5,,,,
{16}5,,,,8,2,7,5,6h[4:1],,,3,3,7,2,8,
{16}1,3,2,4,3,6,4,7,5h[8:1],,,,6,5,7,4,
{16}6,,,,4,,5,5,B1/B8/E1,,,,3<1[4:1],4,2,5,
{16}3,,,,,,6,6,,,,,3h[16:3],,4,4,
{16},,,2,7,3,7,4,,,,5,2,6,2,7,
{16}1-5[8:3],8,3,4,,,,,,,,,1,,,,
{16}2,8,1,7,5,6,2,4,1x^4[12:1],,,,C,,,,
{16}2,8,1,7,5,6,2,4,1-4[12:1],,,,B6,,,,
{16}2,8,1,7,5,6,2,4,1xv4[12:1],,,,B7,,,,
{16}2,8,1,7,5,6,2,4,1p4[12:1],,,,E7,,,,
{16}2,8,1,7,5,6,3,4,2^5[12:1],,,,C,,,,
{16}2,8,1,7,5,6,3,4,2-5[12:1],,,,B7,,,,
{16}2,8,1,7,5,6,3,4,2xv5[12:1],,,,B8,,,,
{16}2,8,1,7,5,6,3,4,2pp4[12:1],,,,E8,,,,
{16}2x,8,1,7,5,6,2x,4,1x,7,5,6,2,4,1x-5[8:5],8xh[16:13],
{1},
{32}2,,8,,4,,6,,2,,8,,4,,6,,1x,2x,3x,4x,7x,6x,5x,4x,1,,7,,3,,5,,
{16}2-4-8[8:1],6,1,7,,,,,6-8-2[8:1],2,5,3,,,,,
{16}3-1-5[8:1],7,4,6,,,,,7-5-3[8:1],3,8,2,,,,,
{16}1,3,,3,5,,7,8,6,,E3/D3,,E7/D7,,,,
{16}1b,,1b,,7,5,6,2,4,,E3/D3,,E7/D7,,,,
{16}2-4[16:1],5-8[16:1],2,5,,,,,3-1[16:1],7-4[16:1],3,7,,,,,
{16}2-4[16:1],6-1[16:1],2,6,,,,,3-1[16:1],8-5[16:1],3,8,,,,,
{16}1,,4,3,8,,5,6,1,,,,,,2-7[8:1]*-7[8:1],5,
{8}2,6h[8:5],,,1-5[16:1],,,,
{16}8-6-4[8:1],2,1,2,,,,,3^8[32:3],6,4,5,,,,,
{16}7-5[16:1],1-3[16:1],7,1,,,,,6^8[16:1],4^2[16:1],6,4,,,,,
{16}8,5,6,,1,4,3,,8,,E3/D3,,E7/D7,,,,
{16}1b,,1b,7,5,6,2,,4,,D3/A2/E3,,D7/A7/E7,,,,
{16}4,,4h[8:1],,2,,2h[8:1],,8,,8h[16:1],,6h[8:1],,2,3,
{16}4xqq5[4:1]/5xpp4[4:1],,,,,,,,,,,,2h[16:7],,4,4,
{16},,,,7h[8:3],,5,5,,,,1pp4[2:1],,8,7,6h[16:9],
{8},,,,,D3/E3,D7/E7,,
{4}3^6[12:1]/6-3[12:1],,2-8[12:1]/7v2[12:1],,
{4}1-3[12:1]*v4[12:1],,5qq4[12:1]*-7[32:3],,
{16}8,6,7,5,6,,2,,4,,E3/D3,,E7/D7,,,,
{16}1b,,1b,4,2,,8,5,7,,E3/D3,,E7/D7,,,,
{8}1bx-5[12:1]/6,8,1/7-3[12:1],8,2bx-5[12:1]/7,1,2/8-4[12:1],1,
{8}3bx-8[12:1]/8,2,5-1[12:1]/3,6,4bx-8[12:1]/5,3,6/4,5,
{16}4bxqq4[4:1]*pp4[4:1],,,,,,,,,,,,,,2-7[8:1]*-7[8:1],5,
{16}2,6,6h[4:1],,,,,,1-5[16:1],,,,,,8bh[16:1],,
{16}1-3-5[32:3],7,8,6,1,,6bh[16:1],,4^1[12:1],7,5,8,4,,8bh[16:1],,
{16}2-8-6[32:3],4,3,5,2,,5bh[16:1],,1^4[12:1],6,8,7,1,,7bh[16:1],,
{16}1,5,3,,8,4,6,,1,,E3/D3,,E7/D7,,8bh[16:1],,
{16}1b,,1b,7,5,6,2,,4,,D3/A2/E3,,D7/A7/E7,,,,
{16}3,,3h[8:1],,1,,1h[8:1],,7,,7h[16:1],,5h[8:1],,1,2,
{16}3xqq5[4:1]/6xpp4[4:1],,,,,,,,,,,,2h[16:7],,4,4,
{16},,,,7h[8:3],,5,5,,,,1qq6[2:1],2,3,4,5h[16:9],
{16},,,,,,,,,,,,7bh[16:1],,5,5h[4:1],
{16},,,,4h[8:3],,2,2,,,,1pp6[2:1],8,7,6,5h[16:9],
{4},,,1-5[64:59],
{32},,,,,,,,,,,,,,,,1bx-5b[16:1],,,,,,,,,C,,,,,,,
{16}8x,2,7,5,6,2,4bh[8:1],,1,7,5,6,2,4,1-5[32:3],,
{8}7-3[32:3],1,7,2bh[8:1],,1x/7x,1x/7x,7bh[8:1],
{16}1,8,5,6,2,4,1pp3[8:1],,7,,1qq7[8:1],,8,,1-5[8:1],,
{8}2,1,8,1bh[8:1],,8x/2x,8x/2x,2bh[8:1],
{16}8,1,7,5,6,2,4h[8:1],,1,,2,,5pp4[4:1]/3qq4[4:1],,4,,
{16}5x/3x,,,,,,8bh[8:1],,,,1-6b[8:7]*-5[8:7],,1bh[16:1],,,,
{1},
{16}2,,,3,,,4,,4,,,,C,,,,
E
