&title=せかいのっびのびトレジャー!
&artist=ハロー、ハッピーワールド!
&first=0
&des=霊風
&lv_5=13+
&inote_5=(85)
{1},
{2},{16}4h[16:1],,5h[16:1],,{24}3,2,1,8,7,6,
{32}4/5,,,6h[32:3],E2/B2,,,,4/5,,,6h[32:3],E2/B2,,,,4/5-8[16:1],,,,E2/B2,,,,4/5,,,,E2/B2,,,,
{32}4/5,,,6h[32:3],E2/B2,,,,4/5,,,6h[32:3],E2/B2,,,,4/8,,,,2-6[16:1],,,,E4/E1,,,,2/6,,,,
{32}5/4,,,3h[32:3],E8/B7,,,,5/4,,,3h[32:3],E8/B7,,,,5/4-1[16:1],,,,E8/B7,,,,5/4,,,,E8/B7,,,,
{32}5/4,,,3h[32:3],E8/B7,,,,5/4,,,3h[32:3],E8/B7,,,,3/7,,,,5w1[16:1],,,,A7/A3,,,,5,,,,
{32}3h[32:3],,,7h[32:3],,,4,,4h[32:3],,,6h[32:3],,,5<2[8:1],,,,E7/E4,,,,5/4,,,,3,,,,,,
{32}6h[32:3],,,2h[32:3],,,5,,5h[32:3],,,3h[32:3],,,4-8-2[8:1],,,,E3/E6,,,,4/5,,,,6,,,,,,
{32}2h[32:3],,,4h[32:3],,,3,,3h[32:3],,,5h[32:3],,,4qq5[8:1],,,,B6/B2/C,,,,7/4,,,,8,,,,,,
{32}7h[32:3],,,5h[32:3],,,6,,6h[32:3],,,4h[32:3],,,5pp4[8:1],,,,B3/B7/C,,,,2/5,,,,1,,2x,3x,2x,,
{32}1xh[8:7],,,,,{64},A7,,A6,,A5,,A4,,,,,B7,B6,,,,,B4/B5/E5,,,,B2,B3,,,B8,,,,B6,,,,B4,,,,B2,,,,A2,A3,A4,A5,A6,,,,,,,,
{32}2-6[16:1]/8-4[16:1],,,,3/7,,,,2/8,,,,,,5h[8:1],,,,{96}D1,A1,D2,A2,D3,A3,D4,,,,,,{32}6,5,6,,7/3,,2,,1/6,,
{32}8/7-4[16:1],,6,,7/8,,1,,7/8,,,,E2/B2,,,,1x-5[16:1]/5x,,3,4,3,,2/6,,1,,7,,B7/E8,,,,
{32}7v4[16:1]/1v4[16:1],,,,6/2,,,,7/1,,,,,,4h[8:1],,,,{96}D1,A8,D8,A7,D7,A6,D6,,,,,,{32}3,4,3,,2/6,,7,,8/3,,
{32}1/2-5[16:1],,3,,1/2,,8,,1/2,,,,7p2[16:1],,1,,3p6[16:1],,4,,7xb/5xb<4b[8:1],,,,3xb,,,,5xb,,,,
{32}Cf,,,,2x/6x,,,,3h[32:3]/4h[32:3],,,,,,7h[8:1],,,,1,8h[32:3],,,2,1,2h[8:1],,,4,4,,,,
{32}3/5V71[8:1],,4,,3/5,,4,,3/5,,,,E2/B2,,7h[8:1],,,,4,4h[32:3],,,6,5,6h[16:1],,,,E2/B2,,,,
{32}C/B4/B5,,,,7x/3x,,,,6h[32:3]/5h[32:3],,,,,,2h[8:1],,,,8,1h[32:3],,,7,8,7h[8:1],,,5,5,,,,
{32}4/6h[8:1],,5,,4h[8:1],,5,,6h[32:3],,,5,6-8[16:1],,4,,4-1[16:1],,,5,6,,4,,4,,,,{192}E8/E2,B2,B7,B3,B6,E4,{32}E6,,,
{16}3x/7x,2,1,8,2/7,1,8,7,1/6,8,7q3[16:1]*V13[16:1],6,5/4,3/6,7b,,
{16}4/5,4,3,2,1/5,5,4qq2[16:1],3,2h[16:1]/6,,4bpp6b[16:1]/5b,,5h[16:1],,3b/4b,,
{16}5x/1x,6,7,8,6/1,7,8,1,7/2,8,1p5[16:1]*V75[16:1],2,3/4,5/2,1b,,
{16}4/3,4,5,6,7/3,3,4>1[16:1],5,6h[16:1]/2,,4b<7b[16:1]/5b,,5h[16:1],,2b/4b,,
{16}Chf[4:3]/8xh[32:3],,,7xh[32:3],,,6xh[32:3],,,5xh[32:3],,,4b,4b,,,
(200)
{12}2x/6x,,3,3/4,,6,5/6,,7,7/8,,2,
{4}1/2h[4:3],,{32}A3,D4,A4,D5,A5,D6,A6,D7,A7,D8,A8,D1,A1,,,,
{12}2-6[8:1],,,2/8<5[8:1],,,3/8,,3,4,,2,
{12}5-1[8:1],,,4/5,,4,5-1b[8:1],,,5,,,
{12}2/8,,2,1,,1,3,,3,8,,8,
{12}4,,4,7,,7,5,6,5,6v1[8:1],,,
{12}3h[4:1]/6,,,8,,8,2,,2,1q5[8:1],,8,
{12}1/8h[4:1],,,,,4,7,,3,6,,2,
{12}5-8[8:1],5,5,5,,,1-4[8:1],1,1,1,,,
{12}5,3,5,3,6,4,6,4,7,5,7,5,
{12}8-3[8:1],,,8/1>4[8:1],,,6/1,,6,5,,7,
{12}4-8[8:1],,,5/4,,5,4-8b[8:1],,,4,,,
{12}7/1,,7,2,,2,8,,8,3,,3,
{12}1,,1,4,,4,1,2,8,1-4[8:1]*-6[8:1],,,
{4}1,1-5[8:1],1,1-3[8:1]*-7[8:1],
{4}1,1>4[8:1]*<6[8:1],1pp6[4:5],5xh[6:1],
{8},6x,6x,,7x,7x,,8xh[4:1],
{8},,8x-4b[8:1],,8b,,5x,,
{4}4h[2:1]/6h[2:1],,,4/6,
{2}3h[4:1]/4h[4:1],{24}2x/3x,4x,5x,6x,7x,8x,1x,2x,3x,4x,5x,6x,
{12}7xv4[8:1]/1xp5[8:1],,,7-2[8:1]/1,,,3,,3,8,,2,
{12}7,,1,6,,8,5,,7,4h[4:1],,,
{12}5-3>2[8:1]*-7>8[8:1],,,5,,,1,,1,8,,8,
{12}1,,7,2,,8h[12:7],,,1,2,3,4,
{4}5>3-1[4:1],1<7-5[4:1],5-3>1[4:1],1-7<5[4:1],
{4}5>1[4:1],1<5[4:1],5-1[8:1],1,
{12}7,8,7,8,7,8,7,8,7,8,6,1,
{12}5,2,5,2,5,2,4,3,4,3,4,3,
{12}4-7[16:1],,4,2-6[16:1],,2,8-3[16:1],,8,5-1[16:1],,5,
{1}4>3>2<1<8<7<6>5b[8:5],
{2}3<4<6[2:1],C,
{2}3<5<7[3:2],C/E5,
{2}3<6<8[6:5],B6/C/B3,
{2}3,2h[4:1]/7h[4:1],
{12}6/8pp2[4:1],,,,,7,7xh[4:1],,,,,,
{12}3/1qq7[4:1],,,,,2,2xh[4:1],,,,,,
{12}6-3[8:1],6,6,6,,,2-7[8:1],2,2,2,,,
{12}5,5,5,1,1,1,7,7,7,{24}3,2,1,8,7,6,
{12}5xb-2[8:1]/8xb-4[8:1],,,5pp4[8:3]/8,,,1,,2,2,,3,
{12}3-1[8:1],,4,3,,4,3-8b[8:1],,4,3,,,
{12}1-7[8:1]/5,,5,1,,5,1-3[8:1],,5,1,,5,
{12}1<6[8:1]*>4[8:1],,7,1,,,5,4,6,5xw1[8:1],,,
{4}5b,8xw4[8:1],8b,5xw1[8:1],
{4}5b,8x>3[8:1]*<5[8:1],8qq3[4:5],4xh[6:1],
{8},3x,3x,,2x,2x,,1xh[4:1],
{8},,1x-5b[8:1],,1b,,4x,,
{4}5h[2:1]/3h[2:1],,,5/3,
{2}6h[4:1]/5h[4:1],{24}7x/6x,5x,4x,3x,2x,1x,8x,7x,6x,5x,4x,3x,
{12}2xv5[8:1]/8x,,6v1[8:1],2,,6,,,3/8,,,1h[4:1]/6,
{12},,8-6[8:1],1-5[8:1],,8,1,,,E7/E3/C,,,
{12}1/2-5[8:1],,6-1[8:1],2,,6,,,4/7,,,2/8h[4:1],
{12},,2>5[8:1],8-4b[8:1],,2,8,,,E3/B3/B4/E4f/E5,,,
{12}7xv4[8:1]/1x,,3v8[8:1],7,,3,,,6/1,,,8h[4:1]/3,
{12},,1-3[8:1],8-4[8:1],,1,8<3[4:1],,,2,,,
{12}1-6b[8:1],,4-8b[8:1],1,,4,,,3x/7x,,,4h[4:1]/5,
{12},,6,4,,5,3,3,3,6,6,6,
{2}4h[2:1],5h[8:11],
{4}6,7,8h[8:3],{8},{32},1xb/6xb,2xb/7xb,3xb/8xb,
{1}4xbq7[2:1]/1xbq4[2:1],
