&title=#あくあ色ぱれっと
&artist=湊あくあ
&first=0
&wholebpm=156
&demo_seek=88.4
&demo_len=30.7
&lv_5=12+
&des_5=Ragna@あくあクルー
&inote_5=(156){2},
3h[1:1],,
5h[1:1],,
4^1[4:7],,
5h[4:1],4h[4:1],
5h[1:1],,
6^3[4:7],,
6h[4:1],5h[4:1],
4h[2:1],1b,{4}
3h[1:2],4,4,4,
6,4,7,5,
7h[1:2],5,5,5,
4,6,3,5,
4h[1:2],5,5,5,
7,5,3,6,
8h[4:1],2h[4:1],4h[4:1],5-1[2:1],
,,5b,,
2b/7b,{8}3,6,4,5h[4:1],,2^5[8:1],
,7h[4:1],,6-1[8:1],,8h[4:1],,2,
,,7,4,6,3h[4:1],,4^7[8:1],,2h[4:1],,
8-5[8:1],,1h[4:1],,4,
,,2,6,3,7h[4:1],,5-1[8:1],,8h[4:1],,
2-5[8:1],,7h[4:1],,4,
,,3^8[4:1],5h[8:3],,,,,
76,,45,,23,,1^4[8:1]/8^5[8:1],,
,,6,3,8,1h[4:1],,6-3[8:1],
,2h[4:1],,4-8[8:1],,1h[4:1],,7,
,,2,5,4,7h[4:1],,6-1[8:1],
,8h[4:1],,2-6[8:1],,7h[4:1],,5,
,,4,6,2,4h[4:1],,8-3[8:1],
,5h[4:1],,4^1[8:1],,7h[4:1],,8,
,,1^4[4:1],5h[8:3],,,,,
6,75,,4,35,,2-5[8:1]/6-1[8:1],,
,,4h[4:3],,8,,8,,
8-4[4:3],,7,,6,,5,,
6h[1:1],,3,,3,,3,,
3-6[4:3],,4,,5,,7,,
8h[1:1],,5,,5,,5,,
5^8[4:3],,4,,3,,2,,
1h[4:1],,7h[4:1],,4h[4:1],,5,2h[4:3]/6h[2:1],
,,,,,,,,
1b/7b,,6,4,5h[8:3],,1,1^4[2:1],
,4,5,6,7,8,1,,
73,,2,6,1h[8:3],,4,4-7[2:1],
,8,1,2,3,4,5,,
84,,5,2,4h[8:3],,1,1-5[2:1],
,4,5,6,7,8,1,,
83,,2^5[4:1],,5-1[4:1],,1^6[4:1],,7h[4:1],,
,,8h[4:1],,3h[2:1],,5h[4:1],,
,,2h[4:1],,7h[2:1],,5h[4:1],,
,,6h[4:1],,3h[4:1],,5h[4:1],,
1h[4:1],,7h[4:1],,5h[2:1],,4h[4:1],,
,,4h[8:1]/5h[8:1],,45,,2^5[2:1]/7,,
,,6,,7,,8-4[2:1],,
5,,3,,2,,15,,
37,3^8[8:1]/7^4[8:1],,,,,15,,
34,3,65,6,34,2,16,,
,,,,,,2b/8b,,
,,,,26,,5,4,
3,2^5[8:1],,2,8,8-4[8:1],4-7[8:1],8,
,1h[8:3],,8,8,,2-5[8:1],2,
5,6,7-3[8:1],7,3,2,1,1^4[8:1],,
7h[4:1],,5,4,6,2-6[8:1],,
8,8h[4:1],,5,4,5,2-5[8:1],7-3[8:1],
2,7,,2,1,8,75,6,
45,3,7-4[8:1]/2-5[8:1],4^1[8:1]/5^8[8:1],,,,,
2-7[8:1]/6-3[8:1],,,,1b/5b,,6^1[8:1],,
6,4-8[8:1],,4,6,6^3[8:1],3-7[8:1],6,
,1h[8:3],,8,8,,2-6[8:1],2,
6,7,8-5[8:1],8,5,4,3,3-6[8:1],
,8h[4:1],,5,4,6,2^5[8:1],,
8,8h[4:1],,6,5,6,2-5[8:1],8-4[8:1],
2,8,,2,1,8,74,6,
53,2,8-4[8:1]/1-5[8:1],4^1[8:1]/5^8[8:1],,,,,
1-4[8:1],,1-6[8:1],,1-5[8:1],,1b,,
8-5[8:1],,8-3[8:1],,8-4[8:1],,8b,,
1^4[8:1],,1^6[8:1],,1-5[8:1],,1b,,
,,,,,,,,,,
2b/8b,,3,6,4,5-1[8:1],,2-5[8:1],
,7-3[8:1],,4-1[8:1],,5h[4:1],,8,
,,6,2,7,3-8[8:1],,6-3[8:1],
,1-6[8:1],,4-8[8:1],,2h[4:1],,7,
,,1,6,2,5-8[8:1],,4-1[8:1],
,7-3[8:1],,2^7[8:1],,5h[4:1],,6,
,,2-6[4:1]/6,7h[8:3]/3,,,,,
4^1[8:3],,2^7[8:3],,8^5[8:3],,6,,
,,7,2,5,4-8[8:1],,6-1[8:1],
,2-6[8:1],,8-4[8:1],,5h[4:1],,6,
,,4,8,2,6-3[8:1],,1-5[8:1],
,4-8[8:1],,3^6[8:1],,7h[4:1],,8,
,,6,1,4,3-7[8:1],,5-1[8:1],
,2-6[8:1],,8^3[8:1],,5h[4:1],,4,
,,2/7-2[4:1],1/8h[8:3],,,,,
6h[4:3]/1h[1:1],,,,,,,,
,,,,,,,,
E
