&title=イガク
&artist=原口沙輔/重音テト
&first=0.45
&des=机械设计制造及自动化
&lv_6=14
&inote_6=(170)
{4}4w8[4:2]/5w1[4:2],,,D1f,
{8}2h[8:1],4h[8:1],3h[8:1],8h[8:1],1,1/7h[8:2],,5h[8:1],6h[8:1],1h[8:1],4h[8:1],2,3/8-4[8:1],4-8[8:1]/7,,,
{8}2,2h[8:1],4h[8:1],3h[8:1],8h[8:1],1h[8:2],,5,6h[8:1],1h[8:1],4h[8:1],2,
{16}3,8,2,7,1,6,8,5,
{8}1h[8:1],6h[8:1],4h[8:1],5h[8:1],3h[8:1],1h[8:2],,2h[8:1],8h[8:1],4h[8:1],6h[8:1],1h[8:1],7-3[8:1],36,
{8}2<7b[8:1]/7,,2bx,,6hbx[8:3],,,7bx>2b[8:1],,7bx/2bx,,3bx<6b[8:1],,3bx/6bx,8bxp4[8:1],7bx,
{96}8bx/1bx,B7,,,,,,,,,,,,,,,,,,,,,,,
{8}3h[8:4],,4h[8:2],,,3h[8:4]/2,,2h[8:1],,2h[8:1],,34,3h[8:2],,5,46,
{8}6h[8:4],,5h[8:2],,,6h[8:4]/7,,7h[8:1],,7h[8:1],,65,
{16}4,7,3,6,2,5,3,6,
{8}4-2[8:1],,4/1h[8:1],,5-1[8:1]/8h[8:1],,5/7h[8:1],,6,6-8[8:1],,6/1,1-5[8:1],,12,3,
{8}4xq8[8:1]/8x<5[8:1],,A8,,,
{8}5xp1[8:1]/1x>4[8:1],,A1,,
{8}8x<5[8:1],,A8,2x,3hx[16:1],4hx[16:1]/6x,8x,
{8}5hx[8:1],7,5h[8:1],6h[8:2],5h[8:2],,6,4/7h[8:2],,6h[8:1],,6,5h[8:2]/6-4[8:1],,,,
{8}4hx[8:1]/3x,2,4h[8:1],3h[8:2],4h[8:2],,3,5/2h[8:2],,3h[8:1],,3,
{16}2,5,4,5,1,6,5,6,
{8}5h[8:1],,5h[8:1]/7,6h[8:2],5h[8:2],,6,4/7h[8:2],,6h[8:1],,6,5h[8:2]/6-4[8:1],,,,
{8}3bx-5b[8:1]/5bx-2b[8:1],,3bx/5bx,,,4bx-7b[8:1]/7bx-5b[8:1],,7bx/4bx,,
{8}5bx-1b[8:1]/2bx,,5bx/7bx,8bx<5[8:1],7bx,
{96}1bx-5[8:1]/8bx,A7,,,,,,,,,,,,,,,,,,,,,,,
{8}1b/6b-8[8:1],,6,1b-5[8:1],,1,6b-8[8:1],,1b-5[8:1]/6b,,1,6b-8[8:1],,6,1b-3[8:1],,
{8}1b/4b-8[8:1],,4,1b-3[8:1],,1b,4-8[8:1],,4b/1b-3[8:1],,1,4hb[8:2],,,1bw5b[8:1],5bxw1b[8:1],,,
{32}B2/B8,B3/B7,E4/E7,,B4/B6,B3/B7,E3/E8,,Cf,,,,,,,,
{8}8bw4b[8:1],4bxw8b[8:1],,,
{32}B7/B1,B6/B2,E6/E3,,B5/B3,B6/B2,E7/E2,,Cf,,,,,,,,
{8}1xv4[8:1]/2xv3-5[8:1],3x/8x,,,
{8}8xv5[8:1]/7xv6-4[8:1],6x/1x,,,
{8}1-5[8:1],28,1/7-3[8:1],,7/1w5[8:1],,1,,E8/B7/E7,,
{8}28,17,2-4[8:1]/8-3[8:1],,2-7[8:1]/8-6[8:1],,2-4[8:1]/8-3[8:1],,2-7[8:1]/8-6[8:1],,2/8w4[8:1],,8,,2x/6x,,
{8}71,82,7-5[8:1]/1-6[8:1],,7-2[8:1]/1-3[8:1],,7-5[8:1]/1-6[8:1],,7-2[8:1]/1-3[8:1],,71,,
{16}1x/4x,3x/8x,7x/2x,1x/6x,5bx/C,,,,
{8}28,17,2-4[8:1]/8-3[8:1],,2-7[8:1]/8-6[8:1],,2-4[8:1]/8-3[8:1],,2-7[8:1]/8-6[8:1],,2/8w4[8:1],,8,,2x/6x,,
{8}E4h[4:2]/E8,B1,E8,B1,E8,,E6h[4:2]/E2,B8,E2,B8,E2,,C,E4/E6,E3f/E7f,,
{8}38,16,3-5[8:1]/8-2[8:1],,8-6[8:1]/3-1[8:1],,3-5[8:1]/8-2[8:1],,8-6[8:1]/3-1[8:1],,3/8w4[8:1],,8x,,2x/6x,,
{8}61,83,6-4[8:1]/1-7[8:1],,1-3[8:1]/6-8[8:1],,6-4[8:1]/1-7[8:1],,1-3[8:1]/6-8[8:1],,61,,
{16}4x/1x,3x/8x,2x/7x,1x/6x,5bx/C,,,,
{8}38,16,3-5[8:1]/8-2[8:1],,8-6[8:1]/3-1[8:1],,3-5[8:1]/8-2[8:1],,8-6[8:1]/3-1[8:1],,3/8w4[8:1],,8x,,2x/6x,,
{8}A7f/B4f,A2f/B5f,A7f/B4f,A2f/B5f,A7f/B4f,,A6f/B1f,A3f/B8f,A6f/B1f,A3f/B8f,A6f/B1f,,
{16}1x/8x,1x/8x,1x/8x,,B7h[8:1],,,,
{32}5x<4[4:6],B5,C,B1,,,,,
{4},,,,,,
{4}C,
{8}2,2h[8:1],4h[8:1],3h[8:1],8h[8:1],1h[8:2],,5,6h[8:1],1h[8:1],4h[8:1],2,
{16}3,8,2,7,1,6,8,5,
{8}1h[8:1],6h[8:1],4h[8:1],5h[8:1],3h[8:1],1h[8:2],,2h[8:1],8h[8:1],4h[8:1],6h[8:1],1h[8:1],7-3[8:1],36,27,,
{8}E1,B1,E2,B2,E3,B3,E4,B4,E5,B5,E6,B6,E7,B7,Cf,,
{32}1xs5b[4:10],8xz4[4:10]/2x,3x/7x,4x/6x,5x,,,,
{4},,,,,,,,,,,
{16}1h[8:1],,8h[8:1],,1h[8:1],,8,8,8,,17,,26,,35,,
{16}4b,,56,,78,,3,4,3,,12,,6,5,6,,1,5,3h[8:1],,7,5,1h[8:1],,
{16}4h[96:1],8,4h[96:1],6,8h[96:1],4,2h[96:1],8,
{8}5v8[8:1]/7<4[8:1],,57,,,1>4[8:1]/5q1[8:1],,15,,4x/8x,,
{24}2x/7x,,,1x-5[96:1]*-5[96:1],1x,1x,1x,1x,1x,1bx>2v3-1b[8:5]/8bx<7v6-8b[8:5],,,,,,
{1},
{8}2-5[8:1]/7,36,27,
{32}E8,B7,B6,,
{8}4x-8[8:1],2x>5[8:1],4x,2x,7b,1b/8b,
{16}2,7,3,6,4-1[12:1]/5-8[12:1],,,,
{32}E5f,C,E1,,,,,,
{8}47,25,4-8[8:1]/7-5[8:1],,7-3[8:1]/4,,4V28[8:1]/7,,6-1[8:1]/4,,56,,
{16}4x/1x,3x/8x,2x/7x,1x/6x,5bx/C,,,,
{8}52,74,5-1[8:1]/2-4[8:1],,2-6[8:1]/5,,5V71[8:1]/2,,3-8[8:1]/5,,4>6[8:2]/3,,2x/4x,,1h[8:1],,
{8}E8h[4:2]/E4,B5,E4,B5,E4,,E2h[4:2]/E6,B4,E6,B4,E6,,C,E8/E2,E6/E4,,
{8}1b/8b,25,36,47,18,47,3-7[8:1]/6-4[8:1],25,36,,15,26,4/8-3[8:1]*-5[8:1],,8bx,,,
{8}1-5[8:1],24,16,8<5[8:1],47,1>4[8:1]/8,,1-5[8:1]/4,,1<6[8:1]/5,,1>4b[8:1]/6,,
{32}1/A6,D7,A7,,,,,,
{8}58,36,1-3[8:1]/4-8[8:1],,4-6[8:1]/1-5[8:1],,1-3[8:1]/4-8[8:1],,4-6[8:1]/1-5[8:1],,1w5[8:1]/4,,1,,
{8}37,28,1h[4:2]/B4,B6,B4,B6,B4,,8h[4:2]/B5,B3,B5,B3,B5,,1h[8:2]/C,,8,3b/5b,Cf,
