&title=コぇちっちゃ<てゴ×ンネ
&artist=cosMo@暴走P feat.可不
&first=0.015
&des_5=雙木 きみの
&lv_5=14+
&inote_5=(220)
{1},,
{8}4h[8:3]/2h[2:1],,,,,,,6h[8:3],
{8}4h[8:3],,,5,,3,7,64,
{8}5h[8:3]/7h[2:1],,,,,,,3h[8:3],
{8}5h[8:3],,,1,,7,1,52,
{8}4h[8:3]/3h[2:1],,,,,,,6h[8:3],
{8}4h[8:3],,,5,,2,7,64,
{8}5h[8:3]/7h[2:1],,,,,,,6,
{8}5/3-8[8:1],,3,7,,5,{32}E4,E3,E2,E1,E8,E7,E6,E5,
{8}4xbh[8:1]/1xbh[8:1],,4h[8:1]/1h[8:1],,6h[8:1]/3h[8:1],,6h[8:1]/3h[8:1],,
{8}8h[8:1]/2h[8:1],,8h[8:1]/2h[8:1],,5h[8:1]/4h[8:1],,5h[8:1]/4h[8:1],,
{8}6bh[8:1]/8bh[8:1],,6h[8:1]/8h[8:1],,3h[8:1]/4h[8:1],,3h[8:1]/4h[8:1],,
{8}4h[8:1]/6h[8:1],,4h[8:1]/6h[8:1],,5h[8:1]/2h[8:1],,5h[8:1]/2h[8:1],,
{8}1b/8b,1,13,1,27,2,24,2,
{8}3/5,3,37,3,46,4,48,4,
{16}5x,7,5x,7,4x,6,4x,6,3x,5,3x,5,2x,4,2x,4,
{16}1x,5x,1x,5x,2x,6x,2x,6x,3x,7x,3x,7x,4x,8x,4x,8x,
{8}5xh[8:1],,{32}E5,E4,E3,E2,E1,E8,E7,E6,E5,E4,E3,E2,E1,E8,E7,E6,E5,E4,E3,E2,E1,E8,E7,E6,
{32}E5,E4,E3,E2,E1,E8,E7,E6,E5,E4,E3,E2,E1,E8,E7,E6,E5,E4,E3,E2,E1,E8,E7,E6,E5,E4,E3,E2,E1,E8,E7,E6,
{8}E5,B3/E4/A3,,,,,,,
{8}5x,,5x,,5x,,5x,,
{8}2/6,7,8-6[8:1]/4,,3-1[8:1],,,,
{8}6,2,3-8[8:1]/5,,7-3[8:1],,,,
{8}1,4,5-7[8:1]/3,,2-4[8:1],,,,
{8}8,3,2-5[8:1]/7,,6-2[8:1],,,,
{8}4,8,7-5[8:1]/2,,4-2[8:1],,,,
{8}6,3,4-1[8:1]/7x,,8-4[8:1],,,,
{8}2,5,6-1[8:1]/3,,2-5[8:1],,,,
{8}7xb-4[8:1]/4xb,,7xb/1xb-5[8:1],,1xb/5xb,,,4,
{8}3h[4:1]/5,6,7,8,2>5[8:1],1,8,,
{8}7x-3[8:1],3x-5[8:1],2,1,,,,7h[4:1]/4,
{8},2,6/3,45,7-4[8:1],4,3,2,
{16}1b/5xh[8:1],,,,2b/6xh[8:1],,,,7b/3b<6b[8:1],,,,,,8x,,
{8}7,5,4-1[8:1],4,8,7,6,5,
{8}2-5[8:1],5V74[4:1],2,7,,E1,E8,E7,
{8}4xh[8:1]/5x,,4h[8:1]/6,,7/4h[8:1],,8/4h[8:1],,
{16}7b/3h[8:1],,,,2h[8:1]/6b,,,,1b/5bv7[8:1],,,,,,,,
{8}4x-2[8:1],,8x-6[8:1],,3x-1[8:1],,7x-5[8:1],,
{8}2xh[4:3],,E5,B3,{16}E2,E1,E8,E7,{8}E6,,
{8}3x-1[8:1],,7x-5[8:1],,2x-8[8:1],,6x-4[8:1],,
{8}1x,2x,5x/3x,6x/4x,7x/5x,,D7/E7/B6/B5/B3/E3/A2f,,
{8}8x-6[8:1],,4x-2[8:1],,7x-5[8:1],,3x-1[8:1],,
{8}6xh[4:3],,E1,B7,{16}E6,E5,E4,E3,{8}E2,,
{8}7,7,3,3,5,5,1,1,
{16}2,3,4,5,6,7,8,1,2,3,4,5,6,7,8,1,
{8}6bh[8:1],{16}2,5,{8}2,6bh[8:1],{16}3,5,{8}3,6,4x/7x,
{8}6x/3x,5x/2x,{16}3,4,3,,{8}2x/5x,7x/8x,{16}1,6,1,6,
{8}3bh[8:1],{16}7,4,{8}7,3bh[8:1],{16}6,4,{8}6,3,5x/2x,
{8}1x/7x,{16}6,4,{8}6,2x,1x/4x,2x/5x,3x/6x,{16}7,4,
{8}6bh[8:1],{16}3,5,{8}3,6bh[8:1],{16}2,5,{8}2,6,1x/7x,
{8}6x/2x,5x/3x,{16}3,4,3,,{8}2x/5x,7x/8x,{16}1,6,1,6,
{8}3bh[8:1],{16}7,4,{8}7,3bh[8:1],{16}6,4,{8}6,3,4x/5x,
{8}2b-6[8:1]/7b,,1b-5[8:1],,8b-4[8:1],,7b,,
{8}6xh[4:1]/3x,2,1-4[8:1],1,8,7,6,5,
{8}3x-5[8:1],5x-2[8:1],6,7h[4:1],,,,2h[4:1]/5,
{8},7,3/6,54,2-5[8:1],5,6,7,
{16}8b/4xh[8:1],,,,7b/3xh[8:1],,,,2b/6b>3b[8:1],,,,,,1x,,
{8}2,4,5-8[8:1],5,1,2,3,4,
{8}7-4[8:1],4V25[4:1],7,2,,E1,E2,E3,
{8}5xh[8:1]/4x,,5h[8:1]/3,,2/5h[8:1],,1/5h[8:1],,
{16}2b/6h[8:1],,,,3b/7h[8:1],,,,8h[8:1]/4b>1[8:1],,,,,,,,
{8}8x^6[8:1],,4x^2[8:1],,7x^5[8:1],,3x^1[8:1],,
{8}6xh[4:3],,E1,B7,{16}E6,E5,E4,E3,{8}E2,,
{8}7x^5[8:1],,3x^1[8:1],,6x^4[8:1],,2x^8[8:1],,
{8}5x,6x,7x/1x,2x/6x,3x/5x,,D7f/E7/B6/B5/B3/E3/A2,,
{8}4x^2[8:1],,8x^6[8:1],,3x^1[8:1],,7x^5[8:1],,
{8}2xh[4:3],,E5,B3,{16}E2,E1,E8,E7,{8}E6,,
{8}3,3,6,6,4,4,8,8,
{16}7,6,5,4,3,2,1,8,7,6,5,4,3,2,1,8,
{8}7/3,3,6b/5b,6b,7b/2b,2b,{16}5b,3b,5b,,
{16}2b,1b,2b,,6b/4b,,6b,,2b,5b,2b,,7b,4b,7b,,
{16}3b/5b,,3b,,7b,8b,7b,,6b/4b,,4b,,5b/2b,,5b,,
{16}3b/4b,,3b,,7b,1b,7b,,2b,4b,2b,4b,2b,4b,2b,4b,
{16}1b,8b,1b,8b,1b,,6b,,8b/7b,,8b,,6b/4b,,6b,,
{16}2b,5b,2b,,4b/3b,,4b,,5b/6b,,4b,4b,,7b,7b,,
{16}8b/2b,,2b,,7b,4b,7b,,3b/5b,,3b,,7b/4b,,7b,,
{16}1b/2b,,2b,,5b,3b,5b,,4b,7b,4b,7b,4b,7b,4b,7b,
{8}3xh[4:3],,E5,,B6,,7xh[4:3],,
{8}E5,,B3,,2xh[4:3],,E5,,
{8}E7,,8xh[4:3],,E1,,E3,,
{8}4xh[4:3],,E5,,B6,,7xh[4:3],,
{8}E5,,B3,,2xh[4:3],,E5,,
{8}E7,,8x-2s6-4[2:1],,,,,,
{8}3h[8:1],,3h[8:1],,4h[8:1],,4h[8:1],,
{8}5h[8:1],,5h[8:1],,6h[8:1],,6h[8:1],,
{8}2h[8:1],5,2h[8:1],5,4h[8:1],7,4h[8:1],7,
{8}8h[8:1],3,8h[8:1],3,6h[8:1],1,6h[8:1],1,
{8}58,5,52,5,61,6,63,6,
{8}7/2,7,74,7,83,8,85,8,
{16}1x,5,1x,5,8x,4,8x,4,7x,3,7x,3,6x,2,6x,2,
{8}5xbh[4:1],,B4`E4,,A6f/D7/E7/B6/E6/D6,,,,
{8}1b/8b-4[8:1],,2-5[8:1],,6>3[8:1],,4,,
{8}2,8-5[8:1],6qq5[4:1],8,6,,{32},,,,1x,,7x,,
{8}1x,6,7-5[8:1]/1-5[8:1],2,7-3[8:1]/1,,74,,
{8}24,5,6/3w7[8:1],2,3,,,,
{8}8/1-5[8:1],,7-4[8:1],,3-8[8:1],,5,,
{8}7,1-5[8:1],6V48[4:1],1,6,,3x,,
{16}2,1,2,,4,3,4,,8,7,8,,5,6,5,6,
{8}8bv3b[8:1],8,7b<4b[8:1],7,2b,,6xh[4:1],,
{8}1-5[8:1],,7-4[8:1],,3<6[8:1],,5,,
{8}1,8-6[8:1],3-1v8[4:1],8,3,,,5,
{8}43,2,43,2,43,5,43,6,
{8}7<4[8:1],4>1[8:1],8-4[8:1],,,,,,
{8}1/8-4[8:1],,2-5[8:1],,6-1[8:1],,4,,
{8}2,8-4[8:1],3V51[4:1],8,3,,6x,6x,
{16}2,8,2,,4,3,4,,1,7,1,,6,5,6,5,
{8}8b-4[8:1],,8b<5[8:1]*>3[8:1],,8b,,4x,6x,
{8}3h[4:1],,4h[4:1],,5h[4:1],,6h[4:1],,
{8}2b,2,3b/7b,3,4b>2[8:1]/6bv4[8:1],,,,
{8}1xb/5xb,6,7-5[8:1]/2,,3-1[8:1],3,4,4,
{8}5,2,3-8[8:1]/8,,7p5[4:1],,,,
{8}4,3,2-4[8:1]/7,,6-8[8:1],6,5,5,
{8}4,7,6-1[8:1]/1,,2q4[4:1],,,,
{8}5,6,7-5[8:1]/2,,3-1[8:1],3,4,4,
{8}5,2,3-8[8:1]/8,,7p5[4:1],,,,
{8}4,3,2-4[8:1]/7,,6-8[8:1],6,5,5,
{8}4bx>1[8:1],,4b/7b-4[8:1],,7b/8x,1x,2x,3x,
{8}4x-2[8:1],,,,6-8[8:1],,,,
{8}5-1[8:1],,,,8-6[8:1]*-3[8:1],,,,
{8}5x-7[8:1],,,,3-1[8:1],,,,
{8}4-8[8:1],,2,,3,,3,,
{8}4x-2[8:1],,,,6-8[8:1],,,,
{8}5-1[8:1],,,,8-6[8:1]*-3[8:1],,,,
{8}5x-7[8:1],,,,3-1[8:1],,,,
{8}4-8[8:1],,3,,{16}A4,A5,A6,A7,A8,A1,A2,A3,
{8}8xb-6[8:1]/A4,,8,,2-4[8:1],,2,,
{8}7-5[8:1],,7,,1-3[8:1],,1,,
{8}8-5[8:1],,8,,1-4[8:1],,1,,
{8}8<5[8:1],,8,,1>4[8:1],,1,,
{8}5-7[8:1],,4,,3-5[8:1],,2,,
{8}1-3[8:1],,8,,7-1[8:1],,6,,
{16}5,1,5,1,5,1,5,1,5,1,5,1,5,1,5,1,
{8}5b-3-6-2-7-1-4p5-8<7[4:13],,,,,,,,
{8},,,,,,,,
{8},,,,,,,,
{8},,,,B4,,,,
{8}8b/1b-5[8:1],,7-4[8:1],,3<6[8:1],,5,,
{8}7,2<1-4[8:1],4pp4[4:1],6,8,,{32},,,,8x,,2x,,
{8}8x,3,2-4[8:1]/8-4[8:1],7,2-6[8:1]/8,,25,,
{8}75,4,3/6w2[8:1],7,6,,,,
{8}1/8-4[8:1],,2-5[8:1],,6-1[8:1],,4,,
{8}2,8-4[8:1],3V51[4:1],8,3,,6x,,
{16}7,8,7,,5,6,5,,1,2,1,,4,3,4,3,
{8}1bv6b[8:1],1,2b>5b[8:1],2,7b,,3xh[4:1],,
{8}7-5[8:1],,8-4[8:1],,1-5[8:1],,2-5-1[4:1],,
{8}1-6[8:1],6<3[4:1],3,4,5,,,2,
{8}35,1,45,2,46,8,45,7,
{8}6<1[8:1],1>4[8:1],3-7[8:1],,,,,,
{8}2-4[8:1],,1-5[8:1],,8-4[8:1],,7-4-8[4:1],,
{8}8-3[8:1],3>6[4:1],6,5,4,,2x,2x,
{16}5,6,7h[8:1],,1,2,3h[8:1],,8,7,6h[8:1],,8,1,2,3,
{24}4h[8:1]/1b,8,7,,,,3h[8:1]/8b,7,6,,,,2h[4:5]/7b,6,5,,,,6xh[1:1],,,,,,
{8},,,,,,,,
{16}1b/5,8,7,6,2b,1,8,7,6/3bh[8:3],,,,5x,,5x,,
{16}2,3,4h[8:1],,6,7,8h[8:1],,5,4,3h[8:1],,1,8,7,6,
{16}2b/5,1,8,7,6b/3,2,1,8,7/4b,,
E1/E8/B8/B1/E2/B7/B2/E7/Cf/E3/E5/E6/B5/B4/E4/B6/B3,,,,,,
{8},,,,,,,,
{8},,,,,,,,
{8},,,,,,,,
{8},,,,,,,,
E
