&title=AIZO
&artist=King Gnu
&first=0
&lv_5=13.3
&des_5=tikafi
&inote_5=
(190){4},,,,,,,,5/2-4[8:1],
6,5/2-4[8:1],6,
{8}7,7,5,6,{4}4h[4:1],E5/E4,
4/7-5[8:1],3,4/7-5[8:1],3,
{8}2,2,4,3,{4}5h[#0.3157892],E6/E5,
6/2>5[8:1],8,6/2>5[8:1],8,
{8}7,7,5,6,4,5,{4}3,
3/7<4[8:1],1,3/7<4[8:1],1,
{8}2,2,4/3,3/4,4/5,4/5,5/6,5/6,
{2}7bh[2:1],{16}1,7,1,7,2,6,2,6,
{4}3x-1[8:1]/5x-1[8:1],3/5,3x-1[8:1]/5x-1[8:1],3/5,
8x/7x<4[8:1],{8}1,3q5[4:1],,3/5,,,{4}6-8[8:1]/4-8[8:1],
6/4,6-8[8:1]/4-8[8:1],6/4,
1x/2x>5[8:1],{8}8,6p4[4:1],,6/4,,3,
{4}5/2<7[4:1],7<4[4:1],4>1[4:1],1<6[4:1],
6<4[2:1],{8}5,5,,7,7,8,
{4}1/2-6[8:1],2/5<8[8:1],5/4,{8}3,4,
{4}5/2h[4:1],{8}1,8<5[8:1]/3>8b[8:1],,,,,{4}3-1[8:1]/4-8[8:1],
3/4,4-8[8:1]/5-7[8:1],4/5,
1x/2x>5[8:1],{8}8,6pp4[4:1],,6/4,,,{4}6-8[8:1]/5-1[8:1],
6/5,5-1[8:1]/4-2[8:1],5/4,
8x/7x<4[8:1],{8}1,3qq5[4:1],,3/5,,6,
{4}4/7>2[4:1],2>5[4:1],5<8[4:1],8>3[4:1],
3>5[2:1],{8}4,4,,2,2,1,
7/8,6-4[8:1],,6/2-6[8:1],,2/8>3[8:1],,8/4,
{4}4V25[4:1],{8}5-1[8:1],6,{2}7h[2:1],
{1}B5/B4f/Ch[4:1],
{2}Ch[4:1],5h,
{4}6h[#0.6315765]/Ch[4:1],,{2}B3,
8h[2:1]/Ch[4:1],B1,
2h[2:1]/Ch[4:1],B7,
4h[2:1]/Ch[4:1],B5,
Ch[4:1]/4p8v5[2:1],7xh[4:3],
Ch[4:1],E4/B3/B4,
Ch[4:1]/5q1v4[2:1],3xh[2:1],
B8/B1/C,{8}4,4,6,6,
{4}1h[1:2],E2,E3,E4,
E5,E6,E7,E8,
8h[1:2],D8,D7,D6,
D5,D4,D3,D2,
2v5[8:1],5,7v4[8:1],4,
2qq5[2:1],5,6,7,
{8}8,8,6/4,4/6,{16}3,5,3,5,2,6,2,6,
{2}1h[2:1],Cf,
5-8[8:1]/3-8[8:1],5-8[8:1]/3-8[8:1],
{4}2h[8:1]/6h[8:1],8h[8:1]/7h[8:1],6h[8:1]/4h[8:1],2h[8:1]/5h[8:1],
6/4q8[8:1],3,6/4q8[8:1],3,
{8}2h[8:1],4h[8:1],3,7h[8:1],5h[8:1],6,{4}7/1,
4>1[8:1],8<5[8:1],4>1[8:1],8,
{8}2x/6x,3,4/6,7,1/8,3,{4}2/4,
3/5p1[8:1],6,3/5p1[8:1],6,
{8}7,6,5/3,2,{4}8b-3b[8:1]/7b-4b[8:1],8b/7b,
{1}E3f/E7f/B7/B6/B2/B3/Ch[1:1],
{4}8x,8x,{16}8,2,8,2,7,3,7,3,
{4}6x-8[8:1]/4x-8[8:1],6/4,6-8[8:1]/4-8[8:1],6/4,
1x/2x>5[8:1],{8}8/2,6p4[4:1],,6b/4b,,,{4}3-1[8:1]/5-1[8:1],
5/3,3-1[8:1]/5-1[8:1],5/3,
8x/7x<4[8:1],{8}1/7,3q5[4:1],,3b/5b,,6,
{4}8V64[4:1],4V28[4:1],8V64[4:1],4,
2h[4:1],{8}8,7-5[8:1]/5-1[8:1],,7/5,,4x/8x,
{4}6-1[8:1]/2v5[8:1],6/2,{8}4/8,{16}2,1,{8}2,{16}7,8,
{4}7<4[8:1],{8}7/4,1w5b[8:1],,1,,,{4}6-8b[8:1]/5-1b[8:1],
6b/5b,4-2b[8:1]/5-1b[8:1],5b/4b,
8x/7x<4[8:1],{8}1,3qq5b[4:1],,3b/5b,,,{4}3x-1b[8:1]/4x-8b[8:1],
3b/4b,4-8b[8:1]/5-7b[8:1],5b/4b,
1x/2x>5[8:1],{8}8,6pp4b[4:1],,6/4,,3,
{4}1>4b[8:1],1/6<1b[8:1],6/3<6b[8:1],3/8w4b[8:1],
8,{8}6/2,7-4[8:1]/3v8b[8:1],,3/7,,2x,
2-6[8:1],2,1-5[8:1],1,8-4[8:1],8,7-3[8:1],7,
1,1,4/2,4/5,5/7,7/8,1/8-4b[8:1],1/2,
{16}4b/8b,Cf,
E
