&title=天真的橡皮(DJ版)feat.ずんだもん
&artist=白水寒/bilibili@奥巴鸽咕咕咕
&first=0.1
&des=The -大运-
&des_5=The -大运-
&lv_5=12+
&inote_5=(132){4},,,,,B1f,
{8},7,{4}3/8h[4:1],
{8}2,3,4/6,{16}8,2,{8}8,6,{4}3/5h[4:1],
{8}2,1,7b,6h[8:1],3,4h[8:1],8,1h[8:1],
4,5h[8:1],2<5[4:1],{16}4,2,{4}4,8,
{8}6,7,8b/3,2,4/6,7,8/2,3,
4/7,6,5-7[8:1],5,1-4[8:1],1,{4}8h[4:1],
{8}3,2,6/1b,{16}5,3,{8}6,7,8/2,{16}3,4,
{8}1,8h[8:1],6b-1V74[4:1],4,,2,{4}1h[4:1],
6,2/B7f,{8},3,{4}8/2h[4:1],
{8}7,6,5/3,{16}1,7,{8}1,3,{4}6/4h[4:1],
{8}7,8,2b,3h[8:1],7,5h[8:1],1,{16}6,4,
{8}7,1h[8:1],7-5[8:1],5v4[8:1],{2}4-2[8:1],
{8}6,7,8b/3,2,4/6,7,8/2,{16}3,5,
{8}3h[8:1],6,5b-7[8:1],5,1-4[8:1],1,{4}8h[4:1],
{8}3,2,6/1b,5,6/3,7,8/2,3,
1,8h[8:1],{4}6b-1V74[4:1],{8},5,{4}6,
5-8>1-4[2:1],,,1-6[8:1],
1/7,{8}5b,6,7/2,3,{4}8/4h[4:1],
{8}B6,{16}3,4,{8}2,1-7[8:1],7-3[8:1],5,{4}6h[4:1],
B4,{8}2,8,4/6,{16}7,7,{8}1-4[8:1],4-6[8:1],
{4}1,{8}7,{16}8,2,7,3,6,2,{4}7h[4:1],
1v6[8:1]*v4[8:1],1,{8}3/7,{16}2,8,{8}3/6,4/7,
{4}8/5>2[4:1],2<7[4:1],7<4[4:1],4>1[4:1],
8,{8}6pp4[2:1],3qq5[8:3],,,,,,,6,
8,1,3,5/4,6/3,
{4}Cf,{8}1b-3[8:1],7,1/6<8[8:1],5,{4}6/3,
{8}B2,7,6-4[8:1],{16}1,6,{4}2<5[4:1],7/2,
8,{8}7/1,2,3/5,{16}6,5,{8}8,1,
{16}7,2,6,3,{8}5-7[8:1],8,5/1q4[4:1],3,{4}1/7,
E6,{8}6/4,7,6/1,{16}3,4,{8}2-4[8:1],4-8[8:1],
{4}2,{8}6,7,3,2,{4}1/8,
E7/E3/B6/B3,{8}3-8[8:1],3,7v4[8:1],7,2-8[8:1],2,
6<3[2:1],5,{4}6/3,,,6h[8:1]/3h[8:1],
B1f/E8,{8},7,{4}3/8h[4:1],
{8}2,3,4/6,{16}8,2,{8}8,6,{4}3/5h[4:1],
{8}2,1,7b,6h[8:1],3,4h[8:1],8,1h[8:1],
4,5h[8:1],2<5[4:1],{16}4,2,{4}4,8,
{8}6,7,8b/3,2,4/6,7,8/2,3,
4/7,6,5-7[8:1],5,1-4[8:1],1,{4}8h[4:1],
{8}3,2,6/1b,{16}5,3,{8}6,7,2/8b,{16}3,4,
{8}1,8h[8:1],6b-1V74[4:1],4,,2,{4}1h[4:1],
6,7/B2f,{8},6,{4}1/7h[4:1],
{8}2,3,4/6,{16}8,2,{8}8,6,{4}3/5h[4:1],
{8}2,1,7b,6h[8:1],2,4h[8:1],8,{16}3,5,
{8}2,8h[8:1],2b-4[8:1],4v5[8:1],{2}5-7[8:1],
{8}3,2,1b/6,7,5/3,2,1/7,{16}6,4,
{8}6h[8:1],3,4b-2[8:1],4,8-5[8:1],8,{4}1h[4:1],
{8}6,7,3/8b,4,3/6,2,1/7,6,
8,1h[8:1],3b,4h[8:3],{4}C,7b-1[8:1],
7,2-5<6-3b[2:1],
E
