&title=REINCARNATION
&artist=P*Light
&first=0
&des=Eternal Cycle
&clock_count=4
&lv_5=14+
&inote_5=(220)
{1},
{8}
1,,2,,3,,4,,5h[4:1],,,6/B4/B3,7,8,1/B6/E6,2,3>6[4:6]/E8/B8,,,,,,,,,,,,,,,,
5,,6,,7,,8,,1h[4:1],,,2/B8/B7,3,4,5/B2/E2,6,7<2[4:6]/E4/B4,,,,,,,,7xh[16:1],7xh[16:1],7xh[16:1],7xh[16:1],7xh[16:1],7xh[16:1],7xh[16:1],7xh[16:1],
7x/5x,6,24,3,75,6,24,3,75,8,24,1,75,8,24,1,75,6,24,3,75,6,24,3,75,8,24,1,75,8,24,,
7h[8:3]/8b,,E6/B5,E2/B2,7h[8:3]/8b,,E6/B5,E2/B2,
8b/7h[16:2],,6b/1h[16:2],{16},{8}2b/5h[16:2],{16},{8}4b/3h[16:2],Cf,,
{16}
2,5,2,5,1,6,1,6,8,7,8,7,
{24}
1x,2,3,4,5,6,7pp4[2:1],,,,,,
{4},,Cf,
{4}
1/2b-4-1-5b[8:8],26,7>1[8:1],7,7^4[8:1],7,2q6[8:1]/6q2[8:1],26,
1b-5-8-6b[8:8],12,2>5[8:1],2,2^8[8:1],2,4z8[8:1]/5-1[8:1],45,
6b-8-5-1b[8:8],56,2-4[8:1],2,2-6[8:1],2,8-4[8:1]/4-8[8:1],84,
{8}
7b/3b,,7b/3b,,1-5[8:1]/5-1[8:1],,Cf,,
2>7[8:4]/7<2[8:4],27,27,,,,,,
{8}
24,3,57,6,24,24,3,3-1[8:1],5-7[8:1],3,5,,4bw8[8:1],3b/5b,4b,,
68,7,13,2,68,68,7,7-5[8:1],1-3[8:1],7,1,,8bw4[8:1],7b/1b,8b,,
76,,6h[16:1]/5h[16:1],5h[16:1]/4h[16:1],
23,,3h[16:1]/4h[16:1],4h[16:1]/5h[16:1],
63,,2h[16:1]/7h[16:1],1h[16:1]/8h[16:1],
6-2[8:1]/2-6[8:1],,26,,
{16}
4,5,4,5,3,6,3,6,2,7,2,7,1,8,1,8,1h[2:1]/Chf[8:4],,,,,,,,,,,,,,,,
{8}
1>4v2[2:3],,8,,6,,7,,5x,5x,5x,5x,B7,B6,E7f,,
8<5v7[4:6],,1,,3,,2,,4x,4x,4x,4x,B2,B3,E3f,,
1x-5[8:5],2,3,2,3,2,1x,,
8x-4[8:5],7,6,7,6,7,8x,,
{16}
1b,2,3,4,5,6,7,8,1b,2,3,4,5,6,7,8,1bv7-5[2:1]*v3-5[2:1],,,,,,,,,,,,,,,,
6,5,6,,6,5,6,,6,5,6,,6,5,6,,6,5,6,,6,5,6,,6,5,6,,6,5,6,,
6,5,6,,6,5,6,,6,5,6,,6,5,6,,6,5,6,,6,5,6,,6,5,6,,6b,,,,
2,5,3,4,2,5,3,4,2,5,3,4,2,5,3,4,
5,6,4,7,5,6,4,7,5,6,4,7,5,6,4,7,
3,6,3,6,2,5,2,5,3,6,4,7,
{16}3b,,,,
18,,18,,18,,,,1-4[8:1]/8-5[8:1],,,,Cf,,,,
{16}
1xb-6[8:1],,,,4/1-4[8:1],,4,,1-6[8:1],,6,,1-4[8:1]/6,,,,
1b<6[8:1],,,,4/1>4[8:1],,4,,1<6[8:1],,6,,1>4[8:1]/6,,,,
1b-6[8:1],,,,4/1-4[8:1],,4,,1-6[8:1],,6,,1-4[8:1]/6,,,,
1b<6[8:1],,,,4/1>4[8:1],,4,,1,,6,,1,,,,
1,4,1,4,2,5,3,6,5bh[16:3],,,,5bh[16:3],,,,
8,5,8,5,7,4,6,3,4bh[16:3],,,,4bh[16:3],,,,
3,4,3,5,4,5,2,4,2,6,4,6,1,5,1,5,1b-3-5-7-1b[1:1],,,,7b-3[2:1],,,,
{4}
,,,,,,
5-1-7-3[1:2],,,,,,,,3-7-5-1[1:2],,,,,,,,1-5-3-7[1:2],,,,,,,,7-3[2:1],,,,
{8}
2>5[2:1]/6<1[2:1],,26,,A8/A4f,,,,
2x/6x,,2x-8[4:1]/6x-4[4:1],2x/6x,2x/6x,,,,
3>8[2:1]/7<4[2:1],,37,,A5/A1f,,,,
3x/7x,,3x-5[4:1]/7x-1[4:1],3x/7x,3x/7x,,,,
2-6[4:1]/6-2[4:1],,26,,Cf,,,,
2x<6[2:1]/6x,,4,5,6>2[2:1],,2,,2b<6[2:1],,1,,6b>1[4:3],,5,,,8,,7,6,,
5xh[16:34],,4h[16:2],,3h[16:2],,4h[16:2],,2h[16:2],,4h[16:2],,1h[16:2],,4h[16:2],,2h[16:2],,
4xh[8:15]/5h[8:2],,,,5h[8:1],,7h[8:1],,5h[8:1],,5x,5x,5x,5x,5h[8:1],,
{16}
5x-8[4:1],,,4b,,,4b,,3x-6[4:1],,,2b,,,2b,,
1x-4[4:1],,,8b,,,8b,,7h[4:5],,,6b,,,6b,,
{16}
5x,4,3,2,,,,,1x,2,3,4,,,,,1b-5b[0.82##0.14],,,,,,,,1,1,1,1,1,,,,
{4}4/2-5[8:1],62,{8}6v1[8:1],1V74[8:1],6,2,3v8[8:1],2,7-4V61[8:3],6,2-6[8:1],3,2,,
{4}5/7-4[8:1],37,{8}3v8[8:1],8V25[8:1],3,7,6-1[8:1],7,2-5V38[8:3],3,7-3[8:1],6,7,,
{4}6/2-5[8:1],82,{8}6v1[8:1],1V74[8:1],6,2,3-8[8:1],2,7-4V61[8:3],6,2-6[8:1],3,2,,
{16}1xbh[4:1]/8xb,7,6,5,4,,,,8bxh[4:1]/1xb,2,3,4,5,,,,8pp7b[8:5],,,,4bpp3[8:3],,,,,,,,,,,,
{4}2xbv5[8:1]/8xbv5[8:1],2/8-3-7[4:1],48,{8}2,2,{16}7,4,6,5,8,3,6v1[8:1],5,{8}7-4[8:1],6,7,,
{4}7bxv4[8:1]/1bxv4[8:1],7/1-6-2[4:1],18,{8}7,7,{16}2,5,3,4,1,6,3v8[8:1],4,{8}2-5[8:1],3,2,,
{16}
2b/5b,,3,4,3,,18,,7b/4b,,6,5,6,,18,,
2b,3,4,8b,7,6,1b,2,3,7b,6,5,4,3,2,,
{16}
1b,5x,5x,5x,5x,5x,5x,,
2b,6x,6x,6x,6x,6x,6x,,
3b,7x,7x,7x,7x,7x,7x,7x,7x,7x,7x,B7/B3/Cf,,,,,
{16}
3b,6b,5b,5b,3b,6b,4b,4b,3b,6b,4b,5b,36,,,,
2b,7b,1b,1b,2b,7b,8b,8b,2b,7b,1b,8b,27,,36,,
4b,5b,5b,6b,4b,5b,5b,6b,4b,5b,5b,6b,Cf,,,,
4b,4b,4b,4b,4b-1[8:1]*-7[8:1],4b,4b-8[8:1],4b,,,,,,,,,
{16}
1bx,2,3,4,5,6,7,8,1bx/5,4,3,2,1,8,7,6,
{24}
1bx/5,2x,3x,4x,5x,6x,7x,8x,1x/5x,2x/6x,3x/7x,,
{8}
4bx/8bx,1bx/5bx,4bx/8bx,1bx/5bx,
{32}
4bx,8x,4x,8x,4x,8x,4x,8x,
4x,8x,4x,8x,4x,8x,4x,8x,
4bx,8x,4x,8x,4x,8x,4x,8x,
4x,8x,4x,8x,4x,8x,4x,8x,
{8}
4xbpp3[8:5],8xpp7b[8:4],,,,,,,
{16}
2x/6x,15,84,3-5-7-3[1:2]/7-1-3-7b[1:2],
E
