&title=IF:U
&artist=MisoilePunch♪
&first=1.27
&des=-8Lufs
&lv_5=14+
&inote_1=(190)
&inote_5=(190)
{8}E3,E4,B4,E5,E6,E7,E3,E4,B4,E5,E6,E7,2,3,4,5,6-8-2-4[2:1]/3h[2:1],,,,,,,,2-8-6-4[2:1]/6h[2:1],,,,,,,,7>5[2:1]/3h[2:1],,,,,,,,3>4[2:1]/6h[2:1],,,,,,,,7^1-3^5[2:1]/2h[2:1],,,,,,,,2^1^8^7^6^5^4^3^2[2:1]/7h[2:1],,,,,,,,
{16}1b/8b,,1,8,2,7,3,6,3,6,2,7,1x-5[8:1],,8x-4[16:1],,1b-3[8:1],,8b<8[16:4],,1b,,8b,,,,,,,,,,1b,8,2,7,3,6,2b,1,3,8,4,7,1b,8,2,7,3,6,8b,7,1,6,2,5,
{32}2,3,4,5,6,7,8,1,2/7,6,5,4,3,,,,
{16}2b,1,3,8,4,7,1b,8,2,7,3,6,8b,7,1,6,2,5,1b,8,2,7,3,6,
{32}3,4,5,6,7,8,1,2,3/7,6,5,4,3,,,,
{16}2b-5[12:1],1,2,1,2,,8b-4[12:1],1,8,1,8,,2b-5[12:1],1,2,1,2,,8b,1,8,1,8,,
{32}2,3,4,5,6,7,8,1,2b/6b,,,,,,,,
{16}8xh,7xh,5x,4x,7xh,6xh,4x,3x,6h,5h,3,2,5h,4h,2,1,4bh,3h,2h,1h,3b,2,1,8,2bh,1h,8h,7h,6h/5,4,3,2,1b-5-7-3-5-1[16:24],,,,,,B6,,,,,,B8,,,,,,B2,,,,,,B4,,,,,,,,2x,3,4,5,3x,4,5,6,4x,5,6,7,5x,6,7,8,E5,E1,E4,E8,E3,E7,E2,E6,A1,A2,A3,A4,B5/B6,B7/B8,B1/B2,B3/B4,Cf
,,,,,,,,,,,,,,
{16},,8-4[2:1],,,,,,,,2,,,,,,,,1-5[2:1],,,,,,,,7,,,,8q8[4:1],,,,8<4[4:1],,,,,,,,2,,,,,,,,2-5[2:1],,,,8,,8,,,,7,,7,,,,
{6}6h[12:1]/4,5h[12:1]/3,4h[12:1]/2,3h[12:1]/1,4h[12:1]/2,5h[12:1]/3,
{8}6/4w8[8:1],,,,5w1[8:1],,,,
{16}54,,6-3[8:1]/2-7[8:1],,,,6b/2b,,,,8,1,2,3,4/5,6,
{16}7h[8:1],,5,6h[8:1],,4,5h[8:1],,3,4h[8:1],,2,6,3,6,3,7h[8:1],,4,8h[8:1],,5,1,,1,8,7,6,54,3,2,1,6,8,6,8,7,2,7,2,8b-4[8:1],,4b>5[8:3],,8b,,Cf,,,,,,,,,,2/4b,,,7b/5,,,7b/2b,,1bx/8x,2,3,4,5/6,,5bx/6x,7,8,1,2,3,4bx,5,6x,7,8bx-4[8:1],,4bx-8[8:1],,8bx,,,,,,8x/4x,,7x/3x,,6x/2x,,1bx,5,1bx,5,1bx,5,1bx,5,1bx,5,1bx,5,1bx,5,1bx,5,1bx,5,1bx,5,1bx,5,1bx,5,
{32}1bx,8,7,6,5,4,3,2,1,8,7,6,5,4,3,2,1bx/E7,E8,E1,E2,E3,E4,E5,E6,D7,D8,D1,D2,D3,D4,D5,D6,B6,B7,B8,B1,B2,B3,B4,B5,B6/E7,B7/E8,B8/E1,B1/E2,/B2/E3,B3/E4,B4/E5,B5/E6,Cf,,,,,,,,,,,,,,,,,,,,,,,,,,,,,,,,,,,,,,,,,,,,,,,,,,,,,,,,,,,,,,,,
{8},,,,C,,,,
{32}6h[16:14]/B2,B3,B4,E5,,,,,,,,,,,,,,,,,,,,,,,,,C,,,,,,,,,,,,,,,,,,,,,,,,,,,,,,,,,,,,3h[16:14]/B7,B6,B5,E5,,,,,,,,,,,,,,,,,,,,,,,,,C,,,,,,,,,,,,,,,,,,,,,,,,,,,,,,,,,,,,7h[16:8]/B1,B8,B7,E7,,,,,,,,,,,,,,,,,,,,,,,,,,,,,2h[16:8]/B8,B1,B2,E3,,,,,,,,,,,,,,,,,,,,,,,,,,,,,6h[16:4]/B1,B2,B3,E4,,,,,,,,,,,,,3h[16:4]/E7,B6,B5,B4,,,,,,,,,E8/E2,B7/B2,B6/B3,E6/E4,,,,,,,,,,,,,,,,,C,,,,,,,,,,,,,,,,
{8}3,4,5,6,3,6,4,5,6,5,4,3,4,5,4,3,5,6,4,3,5,3,4,6,5,4,3,4,3,5,4,3,6,4,6,5,4,3,2,1,8-4[4:1],,,,,,,,E2,E3,E4,E5,E6,E7,E8,E1,
{16}6,7,8,1,2,3,4,5,
{32}26,3,4,5,6,7,8,1,2/6,5,4,3,2,1,8,7,6b-3[8:1]/2b-7[8:1],,,,,,,,,,,,,,,,,,,,,,,,,,,,,,,,
{16}8b/4b,,8-5[8:1]/4-1[8:1],,,,8b/4b,,,,,,,,,,
{16}1b/8,2,3,4,5,,56,4,3,2,1,,18,7,6,5,4,,34,5,6,7,8,,8v1[8:1]/1v8[8:1],,,,,,,,2b-5[12:1],1,3,1,2,,7b-4[12:1],8,6,8,7,,2b-5[12:1],1,3,8,2,,7b-4[12:1],8,6,1,7,,1bx/5bx,26,37,48,1,2,3,4,5b/1b,26,37,48,1x/5x,,1bx/5bx,4,3,2,1,,7x,3x,7x,3x,7x,,1,5,1,5,1,5,1,5,2,6,3,7,4,8,5,1,4,8,3,7,2,6,1,5,2,6,1,5,2,6,1b-5[8:1],,5b<4[8:3],,1b,,Cf,,,,,,,,,,7b/2b,,,,,,1b,8,2,7,3,6,3b,4,2,5,1,6,1b,8,2,7,3,6,5b,6,4,7,3,8,2,1,2b,8,3,7,4,6,3b,5,2,6,1,7,1b,8,2,7,3,6,4b,6,3,7,2,8,1b,2,3,4,57,8,1,2,4b,3,4,3,4,,2b,4,2,4,2,,4b,1,4,1,4,,8b,4,8,4,8,4,3,2,1,87,6,5,4,,8b,3,1,4,2,5,3,6,4,7,5,8,6-1-4-7-2[8:3],1,6,1,6b,,,,,,,,,,,,7b/2b,,,,1b/8,,2,,3,,46,,7,,8,,12,,3,,4,,57,,8,,1,,23,,4,,58,,1h[1:1],,5h[16:14],,,,,,,,,,,,,,
{32},48,37,26,1>5[8:1]/5<1[8:1],,,,,,,,,,,,,,,,
{16},,,2b/4b,,,7b/5b,,,,,,7b/2b-5[8:1],,2,,7-4[8:1],,7,,1-5[8:1],,1,,8-4[8:1],,8,,3-8[8:1],,3,,6-1[8:1],,6,,4-1[8:1],,4,,5-8[8:1],,5,,3-6[8:1],,3,,7,,7,,1-3[8:1],,8-4[8:1],,1b-5[8:1],,8b<1[4:1],,1b,,8b,,,,,,,,,,52,,3,4,3,,74,,6,5,6,,7b/4b,,2b/5b,,63,,4,5,4,,72,,1,8,1,,
{48}7b,6,5,4,,,2b,3,4,5,,,,,,,,,,7b/1b,6,5,4,,,,,8b/2b,3,4,5,,,,,8b/2b,7,6,5,,,,,7b/1b,2,3,4,,,,,7b/1b,6,5,4,,,,,8b/2b<2[4:1],3,4,5,,,,,,,,,,,,,,,,,,,,,,,,,,,,,,,,,,,,,,,,,,,,,,
{16}2,6,2,6,3,7,3,7,4,8,4,8,5,1,5,1,5h[16:14],,,,1,,,,1h[16:6],,,,,,,,
{32}1bx/5bx,84,73,62,5p6<6[16:22]/1p2>2[16:22],,,,,,,,,,,,,,,,,,,,,,,,,,,,,,,,,,,,,,,,,,,,,,,,,,,,,,,,,,,,
{16}7qq4[1:1]/3pp8[1:1],,,,,,,,,,,,,,,,,,,,,,,,7b/2b,,7b/2b,,,,,,2b,4,3,5,4,6,3b,5,4,6,5,7,4b,6,5,7,6,8,5b,7,4,6,3,5,2b,3,4,5,8b,7,6,5,
{32}2b,3,4,5,,,7b/2b,6,5,4,,,1b/7b,2,3,4,,,8b/2b,7,6,5,,,2b/7b,3,4,5,,,8b/2b,3,4,,,,8b/2b,3,4,,,,8b/2b,3,4,,,,
{48}8b-4[8:1],7,6,5,,,1b,2,3,4w8[16:1],,,8b,,,,,,Cf/B8/B4/B6/B2,,,,,,
