&title=人恋し神様 ~ Romantic Fall
&artist=上海アリス幻樂団
&first=0
&des=Acadm
&clock_count=4
&lv_2=2
&lv_3=6
&lv_4=10+
&lv_5=12+
&inote_2=(149){1},
,
{1}4h[1:2]/5h[1:2],
{1},
{1},
{1}45,
{1}34,
{1}3,
(142){1}56,
(138){1}6,
(298){1},
(149)
{2}4,4,
{1}4,
{2}5,5,
{1}5,
{2}3,3,
{1}3,
{2}6,6,
{1}6,
{1}45,
{2}2,2,
{1}2,
{2}7,7,
{1}7,
{2}1,1,
{1}1,
{2}8,8,
{1}18,
{1},
{1}3h[1:2]/4h[1:2],
{1},
{1},
{1},
{1}6h[1:2]/5h[1:2],
{1},
{1},
{1},
{1}5h[1:2]/4h[1:2],
{1},
{1},
{1},
{1}3h[1:2],
{1},
{1},
{1},
{1}6h[1:2],
{1},
{1},
{1},
{1}45,
{2}3,3,
{2}4,,
{2}6,6,
{2}5,,
{2}2,2,
{2}1,,
{2}7,7,
(144){2}8,,
(141){1},
(150)
{2}3,3,
{2}34,,
{2}6,6,
{2}56,,
{2}2,2,
{2}21,,
{2}7,7,
{2}8h[1:1]/7h[1:1],,
{1},
{2}3,3,
{2}45,,
{2}6,6,
{2}54,,
{2}2,2,
{2}18,,
{2}7,7,
{2}81,,
{1}1h[1:1]/8h[1:1],
{1},,
{1}1,,
{1}2q5[4:15]*q5[4:15],,
{1},,
{1},
{1}8b,
&inote_3=(149){1},
,
{1}36,
{1}45,
{1}34,
{1}56,
{1}78,
{1}12,
(142){1}3<6[2:3],
(138){1},
(298){1},
(149)
{4}3,3,3,,
{4}6,6,6,,
{4}4,4,4,,
{4}5,5,5,,
{4}2,2,2,,
{4}7,7,7,,
{4}18,18,18,,
{1}2h[2:3]/7h[2:3],
{1},
{4}3,3,4,,
{4}6,6,5,,
{4}4,4,3,,
{4}5,5,6,,
{4}2,2,3,,
{4}7,7,6,,
{4}36,36,36,,
{1}4h[2:3]/5h[2:3],
{1},
{1}3h[1:1]/4h[1:1],
{1},
{4}3,3,3,,
{4}4,4,4,,
{1}6h[1:1]/5h[1:1],
{1},
{1}3h[1:1]/4h[1:1],
{1},
{4}4,4,3,,
{4}5,5,6,,
{2}27,27,
{1}27,
{1}1-4[2:3],
{1},
{1}5,
{4}6,6,6,,
{1}5-8[2:3],
{1},
{1}1,
{4}2,2,7,7,
{1}18,
{4}3,3,34,,
{4}6,6,56,,
{4}4,4,5,5,
{4}4,5,36,,
{4}2,2,21,,
{4}7,7,87,,
{4}1,1,8,8,
(144){1}2h[1:1]/7h[1:1],
(141){1},
(150)
{4}2,2,3,3,
{4}4,4,4,,
{4}7,7,6,6,
{4}5,5,5,,
{2}35,46,
{4}45,45,36,,
{2}28,17,
{4}18,18,27,27,
{1}3h[2:1]/6h[2:1],
{4}1,1,2,2,
{4}3,3,34,,
{4}8,8,7,7,
{4}6,6,56,,
{2}34,56,
{4}45,45,36,,
{2}21,87,
{4}36,36,27,27,
{1}1h[2:1]/8h[2:1],
{1}1-4[2:7],,
{1},,
{1}5-8[2:7],,
{1},,
{1}2q5[2:1]*q5[2:1],
{1}8b,
&inote_4=(149){1},
,
{16}5,4h[1:1],,,,,,,,,,,,,,,
{16},5h[1:1],,,,,,,,,,,,,,,
{16},4h[16:15],,,,,,,,,,,,,,,
{16}5-8[2:1],,,,,,,,,,,,,,,,
{1}1/2>5[2:1],
{1}8/7<4[2:1],
(142){1}1w5[8:13],
(138){1},
(298){1},
(149)
{1}4V28[2:1]*V68[2:1],
{4}3h[2:1],4,6h[2:1],5,
{1}1p5[2:1]*q5[2:1],
{4}2h[2:1],1,4h[2:1],3,
{1}3V57[2:1]*V17[2:1],
{4}6h[2:1],5,8h[2:1],7,
{1}7-4[2:1]*-2[2:1],
{4}4h[2:1],3,5h[2:1],6,
{1}4w8[2:1],
{8}2h[4:1],,3h[4:1],,4,4,4,,
{4}56,45,56,45,
{8}7h[4:1],,6h[4:1],,5,5,5,,
{4}43,54,43,54,
{8}4h[4:1],,3h[4:1],,2,2,2,,
{4}18,21,18,21,
{8}5h[4:1],,6h[4:1],,7,7,7,,
{1}8<5[4:3]/1>4[4:3],
{2},45,
{1}3-7[2:1],
{4}6h[1:1],,,,
{4}5,5,7,7,
{4}4,4,6,6,
{1}6-2[2:1],
{4}3h[4:3],,,,
{1}3-7[2:1],
{4}6h[4:3],,,,
{4}4,3,2,1,
{4}4,5,6,7,
{2}8h[4:1],8h[4:1],
{1}8v3[2:1]*v5[2:1],
{1}2h[1:1],
{1}6h[1:1],
{1}3h[1:1],
{1}7h[1:1],
{1}1h[1:1],
{1}5h[1:1],
{1}4h[1:1],
{1}5<4[4:3],
{4},,,3,
{8}3h[4:1],,4h[4:1],,3,2,2,,
{4}2h[4:1],8h[4:1],3h[4:1],7h[4:1],
{8}4h[4:1],,3h[4:1],,4,5,5,,
{4}5h[4:1],3h[4:1],6h[4:1],2h[4:1],
{8}7h[4:1],,8h[4:1],,7,6,6,,
{4}6h[4:1],4h[4:1],7h[4:1],3h[4:1],
{8}8h[4:1],,1h[4:1],,8,7,7,,
(144){1}1w5[4:3],
(141){2},45,
(150)
{8}2,2,1,,8,8,1,,
{1}7p4[2:1],
{8}7,7,8,,1,1,8,,
{1}2q5[2:1],
{8}3,3,4,,6,6,5,,
{1}4p6[2:1],
{8}4,4,3,,5,5,6,,
{2}6-8[12:1],3-1[12:1],
{1}4>6[2:1]/5<3[2:1],
{8}1,1,28,,8,8,17,,
{4}2h[4:1],3h[2:1],4,4,
{8}5,5,64,,4,4,53,,
{4}7h[4:1],6h[2:1],5,5,
{8}3,3,24,,6,6,57,,
{4}3h[4:1],4h[4:1],5h[4:1],6,
{8}2,2,13,,7,7,68,,
{4}2h[4:1],1h[4:1],8h[4:1],7,
{1}3-8[2:1]/6-1[2:1],
{1}4h[4:7]/5h[4:7],,
{1}5h[4:7]/6h[4:7],,
{1}4h[4:7]/3h[4:7],,
{1}3h[4:7]/6h[4:7],,
{1}2q5[2:1]*q5[2:1],
{1}8b,
&inote_5=(149){1},
,
{16}4h[16:7],3h[8:3],,,,,,,,,,,,46,,,
{16}5h[16:7],6h[8:3],,,,,,,,,,,,35,,,
{16}5h[16:7],4h[8:3],,,,,,,,,2,,34,,2,,
{16}4,3b<6[16:9],,,,,6,,6,,,7,,,8,,
{16}1/2h[4:3],,,3,,,4,,,5,,,6,,6,,
{16}8/7h[4:3],,,6,,,5,,,4,,,3,,3,,
(142){16}2-6[4:7],,,1,,,8,,,7,,,6,,6,,
(138){8}5,,4,,3,,2b,2b,
(298){8},,,,4,5,4,5,
(149)
{8}4>1[8:1],,8,8<5[8:1],,2,3h[4:1],,
{16}6h[16:3],,,5h[16:3],,,4,,4-8[8:1],,,,2,,,,
{8}1V35[4:1],,7,7V53[4:1],,2,1,,
{16}1h[16:3],,,2h[16:3],,,3,,3p7[8:1],,,,5,,,,
{8}6-2[8:1],,4,4,,5,5h[4:1],,
{16}6h[16:3],,,7h[16:3],,,8,,8pp4[8:3],,,,6,,,,
{8}5h[8:3],,3,3>8[8:1],,4,4-8[8:1],,
{4}3-1[12:1],34,6-8[12:1],56,
{16}1>4[8:1]/8<5[8:1],,,,18,,,,4,5,4,5,3b,,,,
{8}5<8[8:1],,1,1>4[8:1],,7,6h[4:1],,
{16}3h[16:3],,,4h[16:3],,,5,,5-1[8:1],,,,1-5[8:1],,,,
{8}8V64[4:1],,2,2V46[4:1],,7,8,,
{16}8h[16:3],,,7h[16:3],,,6,,6q2[8:1],,,,2p6[8:1],,,,
{8}3-7[8:1],,5,5,,4,4h[4:1],,
{16}3h[16:3],,,2h[16:3],,,1,,1qq5[8:3],,,,3,,,,
{8}4h[8:3],,6,6<1[8:1],,5,5-1[8:1],,
{4}5b,5-1[8:1],5,5pp5[4:3]*qq5[4:3],
{1},
{4}3h[2:1],4,5h[2:1],4,
{8}3h[4:1],,5,2,6,3,5<8[4:1],,
{4}8>3[4:1],3<6[4:1],6-3[4:1],3>8[4:1],
{4}8<5[4:1],5>2[4:1],2-5[4:1],5,
{16}6>3[8:1],,,,,,,,34,,,45,,,56,,
{16}5/6>3[8:1],,,,,,,,2h[2:1],,,,,,,,
{16}3<6[8:1],,,,,,,,65,,,54,,,43,,
{16}4/3<6[8:1],,,,,,,,7h[2:1],,,,,,,,
{4}4>1[4:1],1<6[4:1],6>3[4:1],3,
{4}7<4[4:1],4>1[4:1],1<6[4:1],6,
{2}5-1[8:1],5-1[8:1],
{16}37,,,,,,3,6,4,5,4,5,4,5,4,5,
{1}2<3[4:3],
{8}6<5[4:3],,,,,,1,1,
{1}1<2[4:3],
{8}7<8[4:3],,,,,,4,4,
{1}4<3[4:3],
{8}8>7[4:3],,,,,,3,3,
{1}3<2[4:3],
{8}5<4[4:3],,,,,,,1,
{16}1b-5[8:1],,,,,,,,6,,6,4,5,,5,,
{8}3-5[12:1]/5-7[12:1],,35,,35,46,5/7>3[4:1],,
{8}3>7[4:1],,7p3[4:1],,3,,2,2,
{8}7-1[12:1]/1-3[12:1],,71,,71,82,1/3<7[4:1],,
{8}7<3[4:1],,3p7[4:1],,7,,6,6,
{8}5-7[12:1]/7-1[12:1],,57,,17,26,3q7[4:1]/5,,
{8}7q3[4:1],,3<7[4:1],,7,,8V62[4:1],8,
{16}1h[4:1],,,,,,,,38,,4,7,5,,56,,
(144){1}5bqq6[4:3]/6bpp5[4:3],
(141){16},,,,,,,,4,5,4,5,3,6,3,6,
(150)
{8}3h[8:1],2,3h[8:1],4,3h[4:1],2,2h[4:1],,
{16}3h[16:3],,,4h[16:3],,,5,,5v4[8:1],,,,6,,,,
{8}6h[8:1],7,6h[8:1],5,6h[2:1],7,8,1,
{16}2h[16:3],,,3h[16:3],,,4,,4/6h[16:3],,,5h[16:3],,,4,,
{8}34,2,34,5,34,2,2h[4:1],,
{16}6h[16:3],,,7h[16:3],,,8,,2h[16:3]/8,,,1h[16:3],,,8,,
{8}6-8[12:1]/8-2[12:1],,68,,3,28,28,,
{16}2V48[4:1],,,4,,,6,,7V51[4:1],,,5,,,3,,
{4}2<3[8:3],7-3[8:1],,,
{16}2<7[8:1],,2,,6,,,6,5-1[8:1],,5,,7,,,,
{16}8<5[16:3],,,5>2[16:3],,,1,,1pp2[6:1],,,,6,,,,
{16}7>2[8:1],,7,,3,,,3,4,,25,,16,,78,,
{16}1>4[16:3]/8,,,4<7[16:3],,,8,,8pp4[4:1],,,6,,,5,,
{16}5-8[8:1],,5,,3,,,2,1,,38,,3<6[4:1]/8,,,,
{16}6-2[16:3],,,7,,,8,,7>2[16:3],,,2-6[16:3],,,3,,
{8}4-8[8:1],4,4,,4-8[8:1],3,2h[4:1],,
{16}4,,4,2,,2,1,,1,,1,2,,2,4,,
{4}3qq4[8:3]/5pp4[8:3],,,2b/6b,
{4}3h[4:1],5h[4:1],7h[4:1],1h[4:1],
{4}3h[4:1],1h[4:1],8h[4:1],6h[4:1],
{4}1h[4:1],3h[4:1],4h[4:1],6h[4:1],
{4}7h[4:1],5h[4:1],3h[4:1],2h[4:1],
{4}8-2[12:1],6h[4:1],4-6[12:1],2h[4:1],
{4}7-5[12:1],1h[4:1],3-1[12:1],5h[4:1],
{4}4-6[12:1],2-4[12:1],8-2[12:1],6-8[12:1],
{4}3-6[8:1],1-4[8:1],7-2[8:1],5-8[8:1],
{4}5h[2:1],,2q5[4:1]*q5[4:1],2,
{1}8b,
