&title=A Valiant Battle
&artist=はがね
&first=0.02
&des=Rabbit Rabbit XIV
&lv_5=13
&inote_5=(172)
{1},
{8}3,3,4,2h[8:2],{16},,6x,,E7,E8,E1,,
{8}3,3,4,2h[8:2],{16},,6x,,E3,E4,E5,,
{4}6x<1[8:1]/3x-5[8:1],,8x-6[8:1]/5x>2[8:1],,
{16}3h[4:1],,,,4pp1[8:3],,,,6x,,,7x,,,8bx,,
{8}3,4,2h[8:1],5,3,4h[8:1],3,4,2h[8:1],5,3,4h[8:1],2-5[8:1],,2/6,,
{8}6,5,7h[8:1],4,6,5h[8:1],6,5,7h[8:1],4,6,5h[8:1],7-4[8:1],,3/7,,
{8}5x,5xh[4:1],,4-6[8:1],,3,3h[4:1],,1,1-7[8:1],,,2>5[4:1],,5qq2[8:5],,
{1}6h[1:1],
{8}5,,4/7,,8,1,7,2,6,6-4[8:1],,1,1-6[8:1],,6q3[4:1],,8h[4:1],,,,
{8}4,5,3,6,{1}2q3[8:5]*-8-6-4[8:5],
{8}2-5[8:1],,2/6,,7-3[8:1],5,4h[4:1],,
{8}1,1h[4:1],,2-4[8:1],,6,6h[4:1],,5,5-2[8:1],,,6<1[4:1],,1qq6[8:5],,
{1}2h[1:1],
{8}5,,3/4,,2,1,3,8,4,4-6[8:1],,6-2[8:1],,8,8<5[8:1],,1,,2,,
{8}3/8,,4/5,,6,6-4[8:1],,4-8[8:1],,2<5[8:7],2pp3[4:3],,
{1},
{2}5h[1:3],E1,E2,E3,E4,E5,{1}Ch[1:1],
{2}7h[1:3],E5,E6,E7,E8,{8},,1,2,
{4}3h[2:1],,4h[2:1],,
{8}5b-2[8:1],,6,,7-3[8:1],8,3,,
{16}5x,4x,3x,2x,6,5,4,3,8,7,6,5,4,3,2,,
{8}6-1[8:1],,5,,4-8[8:1],3,7,,
{16}6x,5x,4x,3x,7,6,5,4,1,8,7,6,5,4,3,,
{8}1-5[8:1],,8,,6<1[8:1],5,3,,
{16}3x,4x,5x,6x,2,3,4,5,1,2,3,4,5,6,7,,
{8}1bx>4b[8:1],8bx,,6bx<1b[8:1],5bx,,3bx,2bx/4bx,
{8},6,2,5,{16}3,4,3,4,3,4,3,4,
{8}2b/5b,1,7V16[4:1]/8,6,5-2[8:1],3,5<3b[8:3],6x,
{16}7bh[4:1],,,,,,E8,E1,E2,E3,E4,E5,E6,E7,1x,2x,
{8}3x-5[8:1],,7-4[8:1],7,2-6[8:1],2,8pp5[8:3],8,
{16}4h[4:1],,,,,,E4,E3,E2,E1,E8,E7,E6,E5,,,
{8}7x/3x,8,2V83[4:1]/1,3,4-7[8:1],6,4>6b[8:3],3x,
{16}2bh[4:1],,,,,,E2,E1,E8,E7,E6,E5,E4,E3,8x,7x,
{8}6x-4[8:1],,2-5[8:1],2,7-3[8:1],7,1<6[8:1],1,
{16}5b,,,,4/7,,3,5,4,,7,8,6,1,5,,
{8}3/4,2/5,7V16[4:1]/8,6,5-2[8:1],3,5<3b[8:3],6x,
{16}7bh[4:1],,,,,,E8,E1,E2,E3,E4,E5,E6,E7,1x,2x,
{8}3x-5[8:1],,7-4[8:1],7,2<7[8:1],2,6,6,
{4}5h[4:1],4h[4:1],2h[4:1],3h[4:1],
{8}1bpp4[8:5],,,,,7,6,5>6[8:5],
{1},
{8}8bqq5[8:5],,,,,2,3,4<8[32:9],
{8},3,3,,
{16}2,1,2,1,2,1,2,1,
{8}3,2/4,5,4/7,{16}8h[16:3],,,2h[16:3],,,3,,,,
{16}4,3,5,4,6,5,{16}7h[16:3],,,5h[16:3],,,8,,,,
{16}1/2,,3,,5,4,6v3[8:1],,7,,8<5[8:1],,1,,,,
{8}2-6[8:1],2,4h[4:1],,5-1[8:1],5,7h[4:1],,
{16}8,,5x,6x,4x,5x,3,,1/2,,8,,1/7,,,,
{16}6,,5,,7,8,7,,1/6,,5,,4q8[8:1],,
{16},,3,,3,,2,1,2,,3/8,,4,,
{2}2/5bpp2[16:9],3h[8:5],
{8},1b<6[8:1],,4,4-8[8:1],,6>4[8:1],,1>4[8:1]*<6[8:1],,
{8}1-5[8:1],,1/5,,7,5,6q2[8:1],,5,5,4b<7[8:1]*q8[8:1],,4,,1/6h[4:1],,
{8}3,5,4/7,1,8/2,3,2/4,
{8}6-4[32:3],6,3-6[8:1],3,7-3[8:1],7,1,1h[4:1],,
{16}3,,6,5,6,,4/7,,8,,1,,2/7,,
{8}3-5[8:1],3,6-3[8:1],6,2-6[8:1],2,8,8h[4:1],,
{16}6,,3,4,3,,2/5,,1,,8,,7,,
{1}6pp3[4:5]/5pp4[4:5],,
{1}1<6-4q3[4:5]/2,
{2},
{8}4,4pp1[8:3],,,,,,,,,E
