&title=ストロボメモリー
&artist=内田真礼
&first=0
&des=Snorkel
&lv_5=13+
&inote_5=(142)
{1},{4},,,{16},,,,
3/4-6[8:1],,,,2,,2>4[8:1],,,,6,,7h[4:1],,,,
5,,5,,6,,4-6[8:1],,,,3,,3h[4:1],,,,
5,,4,,3,,2-4[8:1],,,,5,,6h[4:1],,,,
5,,4,,3,,7h[32:1],,6,,5,,4,,2,,
34,,5,,3,,6-4[8:1],,3,,,,3,,3,,
24,,5,,2,,6-4[8:1],,2,,,,2h[384:1],,,,
3b/1b,,,,,,8b/6b,,,,4,5,3h[4:1],,,,
4-1[8:1],,,,45,,6h[8:2],,1<6[8:1],,2h[8:1],,1,,2,,
35,,6,4,6,,2h[4:1],,1>4[8:1],,8h[8:1],,1,,7,,
5-8[8:1]/6,,4,,53,,3h[8:2],,8>3[8:1],,7h[8:1],,8,,7,,
64,,3,5,3,,7,,65,,45,,3,4,3,4,
2>5[8:1],,,,26,,7v4[16:3],,,,8,,1,,2,,
3-8[8:1],,2,5,3,,6h[4:1],,,,1,,1>4[8:1],,5,,
6-8[8:1],,6,,5,,5v3[4:1],,,,8,,7,,6,,
25,,3-5[8:1],4,3,,6v1[16:3],,,,1,,2,,3,,
7<4[8:1]/4,,,,73,,2v5[16:3],,,,8,,7,,6<1[16:4],,
,,5,,4,,3h[4:1],,,,2,,1-5[8:1],,8,,
7V58[4:1],,,,4,,4qq8[8:3],,,,8,,7,,6pp1[8:4],,
,,1,,2,,3,,4,,4,,4,,4,,
48,,7,5-1[8:1],6,,4pp4[4:1]*qq4[4:1],5,,,,,,,,,
3,4,4,5,3h[8:1],,5,4,6-1[8:1],,7,,2-5[8:1],,3,,
8-3[8:1],,,,7>2[8:1]/8,,6,,4-6[8:1],,,3,4,,2-4[8:1],,
,,1,,1qq5[8:3],,,,4,,,3,,,2,,
1,4,2,5,3h[8:1],,6,4h[8:1],,7,5h[16:2],,6,,78,,
6,5,5,4,6h[8:1],,4,5,3-8[8:1],,2,,7-4[8:1],,6,,
1-6[8:1],,,,2<7[8:1]/1,,3,,5-3[8:1],,,6,5,,7-5[8:1],,
,,2,,1,,2,4,3,5,3,5,4,6,4,6,
5-8[8:1],,6,,25,,3,,4-1[8:1],,3,,47,,6,6,
5<8[8:1],,6,,25,,3,,4>1[8:1],,3,,47,,6,6,
8-5[8:1],,7,,38,,2,,1-4[8:1],,2,,16,,7,7,
8<5[8:1],,7,,38,,2,,1>4[8:1],,2,,16,,7,7,
5-7[8:1],,5,,45,,3,,2-4[8:1]/4,,2,,12,,8,,
7-5[8:1]/5,,7,,78,,1,,2-6[8:1]/4,,2,,2/8-4[8:1],,7-5[8:1],,
8-2[8:1],,7-3[8:1],,8,,7,,1>4[8:1],,8<5[8:1],,1,,8,,
3,,2b/4b,,2b/4b,,2b-5[8:1]/4b,,1/5,,6h[4:1],,,,7>2[16:2],,
,,67,,5-7[8:1],,5-2[8:1],,5/3V51[4:1],,,,,,2<7[16:2],,
,,32,,4qq2[8:1],,4pp6[8:1],,4-8[8:1],,,,,,5-2[8:1],,
,,85,,7-4[8:1],,6,,1-5[8:1],,2>8[16:9],,1,,2qq2[2:1],,
,,,,,,,,,,,,6-8[8:1],,35,,
,,3,,1b/2b,,3b,,8b/7b,,6b,,2/5,,5-8[16:2]/3,,
6,,3,,2,,1v4[8:1]*v6[8:1],,37,,1,,,,37,,
2V41[4:1]/8,,4,,2,,6,,5-8[8:1],,8-6[8:1],,5,,1,,
2,5,3,4,2,5,3,4,{32}2,3,4,5,6,7,8,1,2,3,4,5,{16}6q3[16:3]/7,,
,,8b,,7<4[8:1],,6,,7/8v3[8:1],,1,,7<4[8:1]/8,,6,,
2v5[8:1]/7,,3,,2/1<6[8:1],,8,,2v5[8:1]/1,,3,,12,,8h[4:1],,
,,6,,7-5[8:1],,1,,7-1[8:1],,2pp6[8:4],,7,,2,,
,,,,,,7,7,5,6,4,5,3,4,2,3,
1w5[8:1],,,,,,,,3/7-3[8:1],,,,37,,2-4[8:1],,
,,2/1-5[8:1],,,8-6[16:1],1,,8b-2[8:1],,4,,8,,5qq2[8:4],,
,,1,,8,,7,,6h[8:1],,,,37,,7b-5[8:1]/3b,,
,,5,,4,,37,,28,,1,1,1,1,1,1,
2-5[8:1],,2,,8-6[8:1],,8,,5v8[8:1],,5,,7,,6,,
15,,6,,7bp3[8:1]/5bv3[8:1],,6b/4b,,7b/5b-1[8:1],,,,2,,,,
3-5[8:1],,3,,7-3[8:1],,7,,1V38[4:1],,1,,8-4[8:1],,7,,
6,,6,,5,,3,4h[16:2],3,,3,,6,5,6,5,
7-5[8:1],,8,,2-4[8:1]/7-1[8:1],,3,,2/7V58[8:2],,,,75,,4,,
2-4[8:1],,1,,7-5[8:1]/2-8[8:1],,6,,7/2V41[8:2],,,,24,,5,,
6-2[8:1],,,,6/7-1[8:1]*-1[8:1],,,,3-7[8:1]*-7[8:1]/7,,,,3/2-8[8:1],,,,
2,6,,6,5,,7,,4,,65,,4,5,3,4,
2v5[8:1]*p6[8:1],,,,2b,,,,1-5[8:1]*-6[8:1],,,,1b,,,,
4-1[8:1],,3,,8-5[8:1],,7,,4w8[8:1],,,,4,,,,
1-4[8:1]/5<8[8:1],,,,1-6[8:1]/5>2[8:1],,,,1-5[8:1]/5-1[8:1],,,,15,,,,
48,,35,,35,,26,,26,,1,7,2,6,3,5,
4V28[4:1],,,,8,,6,,4V68[4:1],,,,8,,2,,
4h[8:1],,1-5[8:1],3,,3,1,,2V48[4:1],,34,,2,,7h[4:1],,,,
8,,1-3[8:1]/7,,1-7[8:1],,1-4[8:1],,1-6[8:1],,1-5[8:4],,1b,,
,,,,,,,,6h[32:1],,7,3,1b/5b,,,,
2-4[8:1],,4,,2,,7-1[8:1],,5,,7,,2,,3,,
4-8[8:1],,6,5,6,,7,,6,,1,6,1,,7,8,
7-5[8:1],,5,,7,,2-8[8:1],,4,,2,,7,,6,,
5-1[8:1],,3,4,3,,2,,3,,8,3,8,2,1,2,
8-4[8:1],,8,,3-5[8:1],,3,,8-4[8:1],,7,,2-5[8:1],,3,,
8-4[8:1],,6,,1-5[8:1],,3,,7-4[8:1],,6,,1-5[8:1],,2,,
6-4[8:1],,6,,1-5[8:1],,1,,7-4[8:1],,6,,1-5[8:1],,2,,
8,,7,,65,,34,,1b/2b,,7b/8b,,1,6,2,5,
3-6[8:1],4,4z8[8:23],5,3bs7[8:22],,,,,,,,,,,,
,,,,,,,,,,,,,,,,
,,,,,,,,,,,,,,
