&title=Epistula Noctis
&artist=Yooh
&first=0
&des_5=the FinaL Message: "AGCC"
&lv_5=14+
&des=the FinaL Message: "AGCC"
&clock_count=4
&inote_5=(185){1},
{1},
{32}1bh[1:0]/8b,{384}2v3V14b[32:103],7,,,,,,,,,,,{384}3h[1:0],6v7V58[384:1223],,,,,,,,,,,{32}4h[1:0]/5,{8},{4},,,
{1},
{1},
{1},
{8}6x,5x,4hx[2:3],,3-7V51[1:1],,,,
{1},
{8}3,4,5h[2:3],,6-2V48[1:1],,,,
{1},
{4}7V51[2:1]/5,5,4,4,
{4}4/1,3/8,2/7,1/6,
{4}5V73[2:1]/8,8,1,1,
{4}2/4,3/5,4/6,5/7,
{8}5b/8<5[4:1],5,4,4,3,3,2,2,
{8}4b/1>4[4:1],4,5,5,6,6,7,7,
{16}8b,4,8,4,7,3,7,3,6b,2,5,1,
{32}5x,4x,3x,2x,1x,8x,7x,6x,
{4}1h[2:1]/5-8[4:1],,,
{16}1-5[8:1],8,1,8,
{8}1b,,7,5,6,4,5V72V85[4:3]/3,,
{4}4h[8:1],4h[8:1],4h[8:1],4h[8:1],
{8}E2/5h[8:1],E3,E4/5h[8:1],,B3/5h[8:1],,5h[8:1]/B4,E3,
5h[8:1],B4,5h[8:1],E4,5h[8:1],2,3/5h[8:1],4,
{8}3x/5x,,2,4x,3,5,4xV27V15[4:3]/6,,
{4}6h[8:1],6h[8:1],6h[8:1],6h[8:1],
{8}5/4h[8:1],6,7/4h[8:1],,6/4h[8:1],,4h[8:1]/5,8,
{8}3h[8:1],7,3h[8:1],6,3h[8:1],5,6/3h[8:1],7,
{16}2-4[8:1],,8,,2,,7,7,5-1[8:1],,8,,5,,8,,
{8}7/8,6,E2/5,5,4/2,3,E7/4,4,
{16}7-5[8:1],,3,,7,,2,2,4-8[8:1],,1,,4,,1,,
{8}2/1,3,E8/4,4,3/8,7,E3/6,6,
{8}5b-1[8:1],,1/5,2b-5[8:1],,6/2,7b-2[8:1],,3/7,4b-7[8:1],,8/4,1b^4[8:1]*^6[8:1],,1b,,
{8}5,5,4/6,4/6,3/7,3/7,{16}2>8[8:3],8,2,8,
{4}2x,,{16}1,,1,,8/1-5b[8:1],2,3,4,
{16}1b/5bV74V68[2:1],,,,2h[16:1],,2h[16:1],,8x-4[8:1],,2h[16:1],,,,3,2,
{8}1-4-7[4:1]/5h[16:1],5h[16:1],7-2-5[4:1],,6x,6,8-4b[8:1],,
{16}8/4V61V75[32:13],,,,2h[16:1],,2h[16:1],,4x,,2h[16:1],,,,2/5x,3,
{8}4V68[4:1]/6h[16:1],6h[16:1],8-5-2[4:1],,1h[16:1],1h[16:1],1h[16:1],1h[16:1],
{8}1-3b[32:3]/8,8,81,8,8h[8:1]/4-8b[8:1],,74,7,
{16}7/1-3b[32:3],,7,,7h[8:1]/1,,,,6/4-8b[8:1],,6,,46,,6,5,
{8}4x-7b[8:1]/1,1,14,1,1h[8:1]/8v3b[8:1],,28,2h[8:3],
{4},B2/B3/E3f,B4/B5/E5f/7x,1xw5b[8:1]/B6/B7/E7f,
{8}1b,,7/8h[16:1],8h[16:1],6<8[32:3]/1h[16:1],1h[16:1],6,{24}2,3,4,
{8}5-2[8:1]/1-5[8:1],1,1-4-7[4:1]/5,,6,6,8x-5[8:1]*-3[8:1],,
{8}8,,2/4h[16:1],4h[16:1],1>4[8:1]/5h[16:1],5h[16:1],1,{24}6,7,8,
{16}15,,5,,5h[8:1]/2x,1,8,7/4x,3,2,1/6x,5,4/8h[16:1],,8h[16:1],,
{8}7h[16:1]/1-3b[32:3],6h[16:1],7h[16:1]/1,6h[16:1],7h[8:1]/4>1b[8:1],,5h[16:1]/4,6h[16:1],
{8}5h[16:1]/8-4b[8:1],6h[16:1],5h[8:1]/8,,3h[16:1]/5<8b[32:3],2h[16:1],3h[16:1]/5,2h[16:1],
{12}1hx[4:1]/7x,,,4h[6:1],3,3,2h[6:1],1,1,7h[6:1],8,8,
{16}1,2,3,4,1-5[8:1],8,7,6,5b/1b,,,3b/7b,,,6b/5b,,
{1}8xp6[4:11]/4xp2[4:11],
{1},
{1},
{1},
{2}6<4[2:3],E5,,E5,
{4}2<5[4:3],,E5,,
{24}7hx[2:1],,,,,,,,,,,,A3,D3,A2,D2,A1,D1,A8,D8,A7,D7,A6,D6,
{8}D5f/A5/A4/E5/8hx[8:1],,8h[8:1],2pp5[16:7],7h[8:1],,7h[8:1],,
{4}6-1[8:1],4h[8:1]/6,7h[8:1]/6-1b[8:1],6/5h[8:1],
{4}4xbpp8[2:1]/2h[8:1],2h[8:1],3h[8:1],3h[8:1],
{8}4h[8:1]/1-5[8:1],,1/8h[8:1],,2h[8:1]/1-5b[8:1],,1/7,7,
{16}6bx/2bx,,3b,4,,1,8b,,4bx/3bx,,1b,8,,5,6b,,
{16}3bx/7bx,,6b,5,,8,1b,,5bx/6bx,,8b,1,,4,3b,,
{16}2,1,2,1,3,8,3,8,4,7,4,7,
{32}5xs1[8:3],6x,7x,8x,1xz5b[4:1],2x,3x,4x,
{16},,,,,,,,2x,2,4,4,1,1,7,7,
{16}2b,,1/2,,8,3,6,5,7h[8:1],,4,7h[8:1],,5,6,,
{16}8,,8/7,,1,5,3,4,2h[8:1],,6,2h[8:1],,4,3,,
{16}1,,2/8,,2,4,3,5,4h[8:1],,7,4h[8:1],,6,5,,
{16}8,,1/7,,7,5,6,5,6,,2,4,3,4,1,,
{16}7,8,6h[8:1],,2x,5,4,5,3h[8:1],,6,5,7x,4,5,,
{16}2,1,3h[8:1],,7x,4,5,4,6h[8:1],,3,4,3x,5,2,,
{16}8,1,7h[8:1],,2x,5,4,5,3h[8:1],,6,4,8x,5,7,,
{16}3,4,1h[8:1],,7x,8,6,1,5-8[8:1],,2-5[8:1],,5,,2,,
{16}7x,4x,6,3,5x,2,6,1,7<4[8:1],,,8,7,,3,,
{16}2,5,3,6,4x,7,3,8,2-5[8:1],,,1,2,,8,,
{16}8,5,7,4,6x,3,5,2,7-5[32:3],,,8,7,,2,,
{16}2,4,3,5,4x,6,5,7,{32}1h[4:1],,,,8,7x,6x,5x,4,,,,26,,,,
{16}2,4,3,4,1x,5,4,5,2>4[32:3],,8,8,2,,6,,
{16}7,5,6,5,8x,4,5,4,7<5[32:3],,1,1,7,,3,,
{16}2,5,3,4,1x,6,4,5,2>5[8:1],,1,1,2,,6,,
{16}7,4,6,5,8x,3,6,2,4<7b[8:1],,1x,,3hx[4:1],,,,
{16}8bx-3[8:1],1,2,3,8x/4x,5,6,7,8-4[8:1],1,2,3,8x/4x,5,6,7,
{16}8-5b[8:1],1,2,3,8x/4x,5,6,7,8-4b[8:1],1,2,3,8x/4x,5,6,7,
{4}2h[8:1]/8-3[8:1],8-5[8:1]/7h[8:1],1h[8:1]/8-4[8:1],8/6h[8:1],
{4}5p1[8:1]/3h[8:1],7h[8:1]/5v8[8:1],5>2[8:1]/4h[8:1],{8}5/6,6,
{16}1bxv6[8:1]/5,8,7,6,1x/5x,4,3,2,1-5[8:1],8,7,6,1x/5x,4,3,2,
{16}1v4b[8:1],8,7,6,1x/5x,4,3,2,1-5b[8:1],8,7,6,1x/5x,4,3,2,
{16}7,8,6,1,5,2,4,3,5,4,6,5,8,1,8,1,6,2,6,2,7v8[16:3],8,7,8V63b[128:23]*V62[16:3],
{16},,,,,,,,
{16}7b-5[32:3]/8b,,,4-7[8:1],,,8V64[32:5],,,2-8b[16:1],,,2,,,,
{16}3-1[32:3]/4x,,,8-3[8:1],,,4V28[32:5],,,7>4[16:3],,,6,,6,,
{16}5b-8[8:1],,,1V75[32:5],,,4V61[16:3],,,2-6[16:1],,,2>8b[16:5],,,,
{16}A2f/D2/D3,,,,,,,,1x/2x,,,34,,,56,,
{8}4bpp1[8:3]/7b,8,8,1>3[8:1],8,8,7,65,
{8}4bpp1b[8:3]/3b,2,2,1<6b[8:1],2x,2x,{16}2x,3,4h[8:1],,
{16}7b,5,6,3,4,2,5,1,7b,8,6,3,4,2,8,1,
{16}7b,2,5,3,6,4,8,2,1,2x/8x,3x/7x,4x/6x,5x-1[8:1],,1,,
{1}Cf/3bV57V13b[16:15]*V57V13<2-8s4-6[4:11],
{1},
{1},
{4},,3x/5x,45,
{8}6h[4:1]/3,5,7,8h[4:1]/1,3,4,5h[4:1]/2,8,
{8}6,7h[4:1]/4,2,8,1-5[8:1]/6-1[8:1],,16,,
{8}2h[4:1]/7,1,3,4h[4:1]/5,7,8,1h[4:1]/6,4,
{8}2,3h[4:1]/8,6,4,5-1b[8:1]/4-8b[8:1],,54,,
{24}2b/7,3,4,5>8[16:3]/7,,,7,,,56,,,6,,,6,,,15,2,3,4>7[16:3]/5,,,
{24}5,,,64,,,6,,,6,,,7hx[8:1]/8,1,2,3,,,2hx[8:1]/8,7,6,5,,,
{24}6b/3,7,8,1<4[16:3]/3,,,3,,,12,,,2,,,2,,,51,6,7,8<3[16:3]/1,,,
{24}1,,,82,,,2,,,2,,,1b/7b,,,,5b/6b,,,,3b/4b,,,,
{16}8b/2b,,7,5,6,,{24}7/8-5[8:1],1,2,3,,,,,,{16}1b,,3,4,
{24}2,,,1/8>4[8:1],7,6,5,,,,,,7bw3b[8:1],,,,,,7b,,,,,,
{16}16,,34,,28,,56,,3,7,1,6,4,8,2,5,
{16}1,8,7,6,58,4,3,2,{24}16,5,4,3,2,1,84,73,62,51,48,3h[96:49]/7h[96:49],
{4},,{32}8bh[1:0]/4b,1h[1:0]/5,{384}2v3V14-2b[16:51],6,,,,,,,,,,,{384}3h[1:0],7v6V85-7[384:1211],,,,,,,,,,,,{8},,,
{1},
{1},
{1},
{1},
{1},
{1},
E
