&title=ANIMA
&artist=xi
&first=-0.01
&des=有点弱
&lv_5=14
&inote_1=
&inote_5=(183.5)
{1},
{16}3h[8:8],,,,,,,,,,,,,,,,
{16}1h[8:16],,,,,,,,,,,,,,,,
{16}8h[8:8],,,,,,,,,,,,,,,,
{16},,,,B6,,,,E5,,,,B3,,,,
{16}8h[8:12],,,,,,,,,,,,,,,,
{24}B7,E7,,{16},,,,,,5h[8:8],,,,,,,,
{16}4<8[8:6],,,,,,,,,,,,,,,,
{16}1,,,,3,,,,4,,,,5,,,,
{16}4xqq8[8:7]/6xp4[8:7],,,,,,,,,,,,,,,,
{16},,,,,,,,,,,,1,,2,,
{16}3xpp4[8:4]*q1[8:4]/4,,,,,,,,,,,,,,,,
{16}2xp4[8:2],,,,5,,,,6xp8[8:2],,,,3,,,,
{16}2x,,2,,2,,2,,2,,2,,5,3,6,4,7x,,7,,3,6,2,5,1,,1,,6,2,7,3,8x,4,8,4,8,4,8,4,8x,4,8,4,8,4,8,4,{24}7x,6,5,4,3,2,7x,6,5,4,3,2,7x,6,5,3x,2,1,7x,6,5,3x,2,1,
{16}7b,,,,2,,,,4,,6,,8x/1x,,,,
{16}2hb[8:3],,,,8,,6h[8:3],,5,,,,3h[8:3],,,,
{16}2-6[8:1],,8-2[8:1],,,,,,5,,,,4-1[8:1],,,,
{16}3h[8:3],,,,8,,6h[8:3],,5,,,,2h[8:4],,,,
{16}1,,7,,5-1[8:1],,,,7<4[8:1],,,,1x,,,,
{16}2bh[8:3],,,,5,,7h[8:3],,8,,,,2h[8:3],,,,
{16}4-8[8:1],,6-4[8:1],,,,,,1,
,,,2h[8:2],,,,
{16}4x,,6,,5,,7/4x,,8,,1,,4/2x,,3,,
{16}6/5x,,7,8,7,,1/8,,1,2,3,4,1,8,7,6,
{16}1b,,2,4,3h[8:1],,5,,2,2,4,3,6,6,5,7,
{16}3,,,,6/4,7/3,8/2,,8,7,6,5,8,1,2,3,
{16}7<4[8:1],,,,4,3,2,1,8p2[8:2],,,,6,,,,
{16}8qq7[8:2],,,,2,,,,1,2,3,4,1,8,7,6,
{16}1x/5,,,,7x/8-5[8:1],,,,5x,,,,7,8,7,8,
{16}1x/6,,,,3x/4-1[8:1],,,,8x,,,,2-6[8:1],7,3,5,
{16}2x,,,,7-4[8:1],8,6,2,7x,,,,3,5,2,6,
{16}4xh[8:1],,1,3,8xh[8:1],,1,6,8x,7,2,5,8x,7,3,4,
{16}2b,,,,{12}8,8,8,6,6,6,4,4,4,
{16}2h[8:2],,{24}1,8,7,6-2[8:1],,,,,,8<5[8:1]/6,,,,,,8/1,,,,,,
{16}2,2,4,3,5,4,6,5,7,7,8,6,1,7,2,8,
{16}3h[8:2],,,,1,,3/1,4/8,5/7,,,,6/5,,4/3,,
{16}1b/8b,,,,{12}1,1,1,3,3,3,5,5,5,
{24}7h[8:2],,,8,1,2,3-8[8:1],,,,,,7<4[8:1]/3,,,,,,{16}3/7,,1,,
{16}1bx>5[8:2],,,,5,6,7,8,1xq7[8:2],,,,5,4,3,2,
{16}1xq5[8:1],,,,8x>3[8:1],,,,7xq3[8:1],,,,5x>1[8:1],,,,
{16}1b,,,,{12}2/8,3/7,4/6,5<8[8:1]*-3[8:1],,,{16}5,,,,
{16}1x/2x,,3,4,2x,,7/1,,7x/8x,,6,5,7x,,8/3,,
{16}1x/2x,,,,{12}7/1,2/6,3/5,4>1[8:1]*-6[8:1],,,4,,,
{16}7x/8x,,6,5,7x,,8/3,,1/2x,,6/5x,,1x/7,,2x/4,,
{16}6x/5,,,,{12}7/4,6/3,5/2,4x-8[8:1]/1x,,,{16}1x>3[8:1]/4<7[8:1],,2x,,
{16}1-5[8:1]/4x,,,,6x<1[8:1]*>3[8:1]/1,,,,6x-2[8:1],,,,8x/6,,,,
{16}1x>4[8:1]/7<4[8:1],,,,1/7x-3[8:1],,,,2x/7,,,,2x-6[8:1]/8,,1x-7[8:1],,
{16}2xb-4[8:1],,1xb-5[8:1],,2xb,,1xb,,2xb,,2bh[8:2],,{24}A5,A6,A7,A8,,,
{16}1xb,,1,,2>4[8:1]/5,,2,,6,,6,,7>1[8:1]/5,,7,,
{16}3,,3,,2/4<6[8:1],,4,,8,,8,,1>3[8:1]/7,,1,,
{16}5bx-1[8:1],,5,,7,,7,,8bx-4[8:1],,8,,2,,2,,
{16}3xb/5,,6,,8/7bx,,2,,4,3,5,4,8bw4b[12:1],,,,
{16},,,,E4,,E5,,E6,,,,B7,,,,E8,,,,E2,,,,B2,,,,E4,B4,B5,E6,
{16}C,,,,E2,,E1,,E8,,,,B6,,,,B5,,,,B4,,,,B3,,,,C,,,,
{16}A8,E1,E2,A2,A7,B7,B3,A3,5x,,,,,,,,
{16}A1,E1,E8,A7,A2,B2,B6,A6,4x,,,,,,,,
{16}A8,E8,E7,A6,A2,E3,E4,A4,1x<6[8:2],,,,6>3[8:2],,,,
{16}3>8[8:2],,,,8<5[8:2],,,,5,,,,3-6[9:1],,,,
{16}7b,,,,6,,6,,5h[8:4],,,,7,,,,
{16}8h[8:2],,,,6,,5,,7,,7,,A4,A3,A2,A1,
{16}5b,,,,2,,2,,4h[8:4],,,,3,,,,
{16}1-4[8:1],,,,8-5[8:1],,,,2-6[8:1],,,,7h[8:2],,,,
{16}8,7,8,7,1>4[8:1],7,1,7,1b,,,,8h[8:2],,,,
{16}1,8,1,8,2>5[8:1],8,2,8,2b,,,,1x,1,2,,
{16}7,8,6,1,5,2,4,3,5b-2[8:1],,,,7/5,,,,
{16}8b,2,8,2,7b,1,7,1,{32}6b,5,4,3,2,1,8,7,6b/2b,,,,,,,,
{16}7x/1,,7x/1,,2,4,3,7,8x/2,,8x/2,,3,6,4,8,
{16}1x/3,,1x/3,,4,6,5,8,2b-6[8:1],,3,,2/1,,,,
{16}2x/8,,2x/8,,7,5,6,2,1x/7,,1x/7,,6,3,5,1,
{16}8x/6,,8x/6,,5,3,4,1,7x-2[8:1]*-1[8:1],,,,7b,,,,
{16}3x/6x,,,,4,,5,,4,5,4,5,4,5,4,5,2x,,6,8,7,3,1,2,{32}8,7,6,5,4,3,2,1,8/4,,,,,,,,
{16}8b/4b,,3,,3/7,,5,2,6-3[8:1],,1-6[8:1],,6,,1,,
{16}8,,8,,7,5,6,,4/3,,7/1,,8>4[8:2],6,1,7,
{12}8,,5,5,6,7,8xh[12:1]/3h[12:1],,4h[12:1]/8h[12:1],,5h[12:1]/8h[12:1],,
{16}6b/8,,1,7,1,7,1,7,3b,,8,4,6b-1[8:1]*-3[8:1],,2,,
{16}6b<5[8:2],,,,,,,,8,1,2,3,7,8,1,2,
{16}5-1[8:1],,,,6-2[8:1],,,,7-4[8:1],,,,3,,1,,
{16}1b/8,,2,1,2,1,2,1,3b,,6,5,7b,,1,7,
{16}2b,8,2,1,4b,5,3,6,8b,7,8,6,1b-5[8:1],,5,,8b,,,,
{16}4/8,3/7,2/6,1/5,8b/4b,,,,1/5,2/6,3/7,4/8,5bqq1[8:16]/1bqq5[8:16],
