&title=Terrasphere
&artist=PLUM
&first=2.1
&des=Mtlas
&lv_6=?
&inote_6=(160)
{16}E1,,E7,,E3,,E5,,C,,8-3-6-1-4-7-2-5-8[8:11]/1h[8:13],,,,,,,,,,,,,,,,,,,,,,,,,,,,27,,36,,5>8pp5[8:9]/4h[8:12],,,,,,,,,,,,,,,,,,,,,,,,E8,,E2,,E4,,E6,,4-7-2-5-8-3-6-1-4[8:9]/5h[8:12],,,,,,,,,,,,,,,,,,,,,,,,1,,8,,2,,7,,5h[8:7]/3-1v8-6[8:5],,,,,,,,,,,,,,,,Ch[8:3],,,,,,,,E3/E7,,,,,,,,
{16}87,,,,16,,,,2,,5,,3,,4,,12,,,,38,,,,4,,7,,5,,6,,18,,,,47,,,,2,,6,,3,,5,,18,,,,25,,,,7,,3,,6,,4,,18,,,,27,,,,46,,3,5,4,6,6,,18,,,,27,,,,35,,6,4,6,4,4,,7,,1,,3,,8,,1,,6,,4,,5,,4b/5b,,,,,,,,Cf,,,,,,,,
{16}7h[8:6],,,,,,5,,4,,3,,2,,1-6[8:1],,1,,1-4[8:1],,3,,1-6[8:1],,7,,1-4[8:1],,3,,1,,7b,,,,,,5,,6,,7,,8-5[8:1],,8,,8-3[8:1],,2,,8-5[8:1],,6,,8,,,,2b,,,,8-2[8:2],,,,2-4[8:1],,,,4pp7[8:2],,3,,2,,1-5[8:8],,8,,,,2,,8,,3,,7,,2,,8,,1,,,,8,,2,,6,,4,,5,,36,,27,,1,8,1,,27,,3,6,3,6,4b/5b,,,,
{16}7h[8:2],,,,,,4,,37,,28,,1>5[8:2],,,,5>1[8:2],,,,1>5[8:2],,,,5<5[8:3],,,,1,,,,5pp8[8:2],,,,1,,2,,3,,4,,48,,37,,26,,15,,48,,26,,3-6[8:1]/7-2[8:1],,,,3b/7b,,,,8h[8:1],,,,4h[8:1],,7,,5/3h[8:2],,8,,6,,5,,7,,,,6h[8:1],,1,,3/5h[8:3],,2,,3,,4,,3,,2,,1,,28,,37,,46,,1,,35,,8,,27,,36,,45,,4,5,4,5,1b/8b,,
{16}2,3,4,,8,,7,,6<1[8:1],,,,6,,,,1,8,7,,4,,5,,2,,1,,27,,36,,45,,2,,1,,7,,8<5[8:1],,,,,,,,5,6,7,,18,,27,,3b/6b,,,,4,5,4,5,26,,17,,26,,35,,4<8[8:2],,,,8v6[8:2],,,,4b,,,,1,2,3,,8x,,1/7-4[8:1],,8x,,1-4[8:1]/7,,8x,,17,,8,,7,,6h[8:2],,,,,,,,4,5,4,,28,,5,,17,,8b,,1,8,1,8,1,,1,,2,,3,,4>1[8:1],,,,4,,,,1,2,3,,6,,7,,8qq5[8:4],,,,18,,,,E5,,E4,,E3,,E2,,E1,,,,,,,,8,7,6,,45,,3,,6,,1-5[8:1],,8-4[8:1],,1b,,8b,,,,5,,6,,7,,,,4,,3,,2,,1/8-4[8:1],,7,,1-5[8:1]/8,,2,,1/8-4[8:1],,7,,1-5[8:1]/8,,2,,8bpp8[8:12]*qq8[8:12],,8b,,,,,,,,,,,,,,,,,,,,,,,,,,,,,,
{16}1-7-5[8:8],,,,1,,,,1,,2,,3,,4,,1,,2,,3,,4,,5,,6,,7,,8,,1h[8:1],,,,7h[8:2],,,,2h[8:1],,3h[8:2],,4h[8:1],,5h[8:1],,6h[8:1],,1,,1,,8,,2,,,,7<4[8:2],,1,,7,,,,8,,,,1,,2,,2,,3,,3,,4,,4,,8,,8,,7,,7,,6,,6,,5,,5,,3h[8:1],,5,,3h[8:1],,6,,2h[8:1],,7,,2h[8:1],,8,,1h[8:1],,8b,,,,2>5[8:1],,5-1[8:1],,2,,,,7h[8:4],,,,,,1b,,1b,,,,1b,,,,1>4[8:1],,,,1b-5[8:1],,,,1b,,1b,,3b/6b,,,,1,,,,1,,1,,1,,1,,8,,7,,6,,5,,4,,,,3,,2,,2,,,,8,,,,1,,1,,7,,7,,6,,6,,2,,2,,3,,3,,8,,1,,27,,,,18,,,,27,,36,,45,,4-6-8[8:1],,1,,2,,3,,2b,,1,1,1,1,1,1,1,,,,{32}1b/2b,,,,6b/5b,,,,8b/7b,,,,3b/4b,,,,1b/5b,,,,3b/7b,,,,2b/6b,,,,
{32}1b,2,3,4,5,6,7,8,1,2,3,4,5/1b,6,7,8,1,2,3,4,5,6,7,8,1/5b,2,3,4,5,6,7,8,1/5b,2,3,4,5/1b,6,7,8,1,2,3,4,5,6,7,8,1/5b,2,3,4,5,6,7,8,1/5b,2,3,4,5,6,7,8,1/5b,2,3,4,5,6,7,8,1,2,3,4,5/1b,6,7,8,1,2,3,4,5,6,7,8,1/5b,2,3,4,5,6,7,8,1b,2,3,4,5/1b,6,7,8,1/5b,2,3,4,5/1b,6,7,8,1,2,3,4,5,6,7,8,1/5b,2,3,4,5,6,7,8,1/5b,2,3,4,5,6,7,8,1,2,3,4,5/1b,6,7,8,1,2,3,4,5/1b,6,7,8,1/5b,2,3,4,5/1b,6,7,8,1/5b,2,3,4,5/1b,6,7,8,1/5b,2,3,4,5/1b,6,7,8,1,2,3,4,5/1b,6,7,8,1/5b,2,3,4,5/1b,6,7,8,1/5b,2,3,4,5/1b,6,7,8,1/5b,2,3,4,5/1b,6,7,8,1,2,3,4,5/1b,,,,,,,,7b,8b,,,1b/2b,,,,6b/5b,,,,8b/7b,,,,3b/4b,,,,1b/5b,,,,3b/7b,,,,2b/6b,,,,
4b/8b,,,,4/8b,
3,2,1,8,7,6,5,4,3,2,1,8/4b,7,6,5,4,3,2,1,8,7,6,5,4/8b,3,2,1,8,7,6,5,4/8b,3,2,1,8/4b,7,6,5,4,3,2,1,8,7,6,5,4/8b,3,2,1,8,7,6,5,4/8b,3,2,1,8,7,6,5,4/8b,3,2,1,8,7,6,5,4,3,2,1,8/4b,7,6,5,4,3,2,1,8,7,6,5,4/8b,3,2,1,8,7,6,5,4/8b,3,2,1,8/4b,7,6,5,4/8b,3,2,1,8/4b,7,6,5,4,3,2,1,8,7,6,5,4/8b,3,2,1,8/4b,7,6,5,4/8b,3,2,1,8,7,6,5,4,3,2,1,8/4b,7,6,5,4,3,2,1,8/4b,7,6,5,4/8b,3,2,1,8/4b,7,6,5,4/8b,3,2,1,8/4b,7,6,5,4/8b,3,2,1,8/4b,7,6,5,4,3,2,1,8/4b,7,6,5,4/8b,3,2,1,8/4b,7,6,5,4/8b,3,2,1,8/4b,7,6,5,4/8b,3,2,1,8/4b,7,6,5,4,3,2,1,8/4b,,,,,,,,{16}3b,2b,1b,,{32}1b/2b,,,,6b/5b,,,,8b/7b,,,,3b/4b,,,,1b/5b,,,,3b/7b,,,,2b/6b,,,,Cf/8b-3-6-1-4-7-2-5-8[8:40],,,,{16},,,,,,,,,,,,,,,,,,,,,,,,,,,,,,,,,,,,,,,,,,1,,1,,2,,,,2,,,,3,,,,3,,,,8,1,2,3,,,,,,,,,,,,,,,,,,,,,8,,7,,6,,5,,3-1-7[8:4]/7-5-3[8:4],,,,,,,,,,,,,,,,{32}1<6[8:2],/5,4,3,2,,,,,,,,,,,,2,3,4,5,{16},,,,,,{8}1,8,7,3,2,6,8,5,2,3,7,8,2,48,1,2,56,4,7,1,7,65,8,4,6,5,27,1,E1,E7,E6,E5,Cf,1,2,1,2,1,3,8,4,7,5,6,E1,E2,E3,E4,Cf,4,45,4,3,4,3,3,{32}84,15,26,3-1-7[8:4]/7-5-3[8:4],
