&title=ムシカエスパーニャ
&artist=きむた
&first=0
&des=Gulaminco
&clock_count=4
&lv_5=13+
&inote_5=(152){4},{8},,,,,,3,
{16}5,4,{8}5,3h[2:1],,4,{4}4h[8:1],
{8}2,{16}5,4,{8}5,2h[8:3],,1,3,4,
5,{16}4,5,{8}4,6h[8:3],,5,5h[8:1],6,
7,{16}4,5,{8}4,7h[8:3],,8,6,5,
{16}7b,5,6,5,{8}7h[8:3],6p8[4:1],,,{4}7h[4:1],
{8},8/7,1/8,1/2h[8:1],{24},,,3,4,5,{8}6,7,
{16}2,4,3,4,{8}2h[8:3],3q1[4:1],,,{4}2h[4:1],
{8},1/2,3/8,7/4,6/5,4h[8:1],{16}6,4,5,4,
{4}6-8[8:1]*-1[8:1],6b,6-2[8:1]*-8[8:1],6b,
{8}3x/5xh[4:1],{16}E2,E1,{8}E8,B6/B5,E2/B2,E8,{4}C,
{8}6h[8:1],{16}4,5,{8}4,6h[4:1]/5h[4:1],,,{4}7,
{8}4h[8:1],{16}5,4,{8}5,6h[8:3],,8,{4}8,
{8}1/5,{16}2,4,{8}3,3h[4:1],,4,5,6,
7/5,{16}6,5,{8}6,6h[4:1],,5,4,3,
2/5,{16}3,4,{8}3,3h[8:3],,4,{4}5,
{8}4/7,{16}6,5,{8}6,6h[8:3],,5,{4}4,
{8}6/3,{16}4,5,{8}3,3h[4:1],,2,1,8,
4/7,{16}6,5,{8}6,6h[4:1],,7,8,1,
2/5,{16}3,4,{8}3,3h[8:3],,4,{4}5,
{8}6/3,{16}5,4,{8}5,6h[8:3],,5,{4}4,
{8}3h[8:1],{16}4,3,{8}5,5h[4:1],,4,3,2,
1h[8:1],{16}4,3,{8}4,2h[4:1],,4,5,6,
7h[8:1],{16}5,7,{8}5,6h[8:3],,4,{4}4,
{8}2h[8:1],{16}4,2,{8}4,3h[8:3],,5,{4}5,
{8}6/4,{16}5,4,{8}5,6h[4:1],,5,4,3,
2/5,{16}3,4,{8}3,5/2h[4:1],,3,4,5,
6,{16}4,5,{8}4,6h[8:3],,5,4,3,
{4}2/7-3[8:1],8x-4[8:1],1x-5[8:1],2x-6[8:1],
7b,{8}8,8p5[8:3],,1,{4}2,
3h[4:1],{8}8,8p5[8:3],,2,{4}3,
4h[4:1],{8}1,1q4[8:3],,5,{4}6,
7h[4:1],{8}1,1q4[8:3],,5,{4}6,
8h[4:1],{8}4,4-1[8:1],,7,{4}6-2[8:1],
3>8[8:1],{8}4,5<8[8:1],,4,{4}3>8[8:1],
4pp7[2:1],{8}1,1h[4:1],,,{4}1,
8/1p4[4:1],{8}7,6h[4:1],,,{4}6/4,
3h[4:1],{8}5,6q4[4:1],,2,{4}2h[4:1],
5h[4:1],{8}3,2p4[4:1],,5,{4}6h[4:1],
{8}3x,{16}B2,B1,{8}B8,5x,{16}E6,E7,{8}E8,2x,{16}B3,B4,
{8}B5,7x,{16}A6,A5,{8}A4,3xh[8:1],{16}5x,4x,{4}6xh[4:1],
5>2[8:1],{8}6,6h[8:5],,8,{4}7,
3h[8:3],{8}4,5<8[8:1],,3,{4}4h[4:1],
1-5[8:1],{8}4,4>8[8:1],,8,7h[4:1],{24}6,5,4,
{4}3,2b/7b,{8},E7/E3/B7/B2,{4}B7/E7/B2/E3,
{8}3h[8:1],{16}4-8b[8:1],3,{4}5,{8},7,{4}7,
{8}6h[8:1],{16}5-1b[8:1],6,{4}4,{8},2,3,4,
{4}5q2[4:1],{8}4,3h[4:1],,,3,4,
{4}5p7[4:1],{8}6,6h[4:1],,,6,5,
3x/4x,{16}2,4,{8}3,3h[4:1],,2,1,8,
7/5,{16}6,5,{8}6,6h[4:1],,7,8,1,
2h[8:1],{16}4,2,{8}4,3h[4:1],,4,5p4[2:1],6,
7xh[4:1],,,7xh[4:1],,,{4}7x/4x,
{8}6b/3b,{16}4,5,{8}4,4h[4:1],,6,5,4,
3h[8:1],{16}4,3,{8}4,2h[4:1],,3,4,5,
{6}6v1[4:1],1x,2x,3xv8[4:1],8x,7x,
{4}6xh[4:1],{8}8,8h[4:1],,1,2V86b[16:3],3,
,,3x,3xh[4:1],{16},,5,4,{8}5,4x/5x,
{4}3x/6x-4>5[2:1],6/4h[8:3],{24},,,,3x,2x,{8}1x,5xh[2:1],
Cf,,,8h[2:1],,,{4}1h[8:1],
{1}8b/1b,
{16}2,4,3,4,{8}2h[8:3],3q1[4:1],,,{4}2h[4:1],
{8},1/2,1/8,8/7h[8:1],{24},,,6,5,4,{8}3,2,
{16}7,5,6,5,{8}7h[8:3],6p8[4:1],,,{4}7h[4:1],
{8},8/7,6/1,2/5,3h[8:1],4,5h[8:1],4,
{16}2,5,3,5,4,6,3,5,{8}4h[8:3],5<7[8:1],,5,
4,3x/8x,2x/7x,1x/6x,5xh[8:1],8x,{16}1,5,2,5,
{4}3-1[8:1]*-8[8:1],3b,3-1[8:1]*-7[8:1],3b,
{8}4x/6xh[4:1],B3,B1,B7,{32}D8,D1,D2,D3,D4,D5,D6,D7,{4}8xw4[8:1],
{1}Cf/8x>7[4:5]*<1[4:5],
{4},,,8,
{8}1pp4[4:3],,,,,8,7,6,
5<1[8:3],,,,,2,3,4,
{4}5h[4:1],{8}8,8>4[8:3],{16},,,,,,,,,,5,
4,6,4,7,4,6,3,5,2,4,3,5,4,
{4}6pp4[4:3],5,4,3,
{8}3q5[2:1],,,6xh[8:3],,,,,{4}7<3[16:5],
{8}4>6[2:1]*>1p5[2:1],4,{16},,,,,,,,,,2,
4,3,5,3,5,4,6,5,7,8,6,1,5,
{4}2>5[2:1],5,6,7,
8p6[2:1],{8}1,1h[4:1],,,2,3,
6,5,4,2h[2:1],{16},E8,,,{8}E6,E5,
2xh[8:1],{16}4x,3xh[8:1],,5x,{8}4xh[8:1],{16}6x,5xh[8:1],,7x,{8}6x,6x,
{4}8-4-6[2:1],2,3,3,
4>1[8:3],{8}6,7,,8,{4}8<4[8:3],
{8}1,2,3,3h[4:1],,4,5,6,
7h[8:1],{16}4,7,3,6,2,5,{2}1b,
{8}4/3h[8:1],{16}4w8b[8:1],3,{4}5,{8},6,{4}6,
{8}4/6h[8:1],{16}5w1b[8:1],6,{4}4,{8},3,3,4,
5h[8:1],{16}4,5,{8}3,2>8b[4:1],,6x,{4}6xh[4:1],
{8}3h[8:1],{16}6,5,{8}7,7<1b[4:1],,3x,{4}3xh[4:1],
Cf,{8}1x/8x,8xh[8:1]/1xh[8:1],{16},,1,8,{8}1,2/7,
6/3,{16}4,5,{8}4,3>8[4:1],3,4,5,6,
7,{16}7,5,{8}6,6<1[4:1],5,4,3,2,
2b-5[8:1],{16}3,4,{8}2b,7h[8:1],2b-5[8:1],{16}3,4,{8}2b,7h[#0.1973724],
(154)2b,{16}6,5,{8}6,4h[4:1],5,6,7,8,
1,{16}3,4,{8}2,1h[8:1],4,5,6/2,7,
(152){6}8<5[8:1],1x,2x,3x>8[8:1],4x,5x,
{4}7xp3[8:1]*<4[8:1],E7f,{8}2h[4:1],1,8,7,
4h[8:1],{16}5-1b[8:1],4,{4}6,{8},2/4,3/5,4/6,
7/5h[4:1],6,4h[8:1],3qq4[8:3],,5,5,6,
7,{16}4,5,{8}3,{16}6,5,{8}7,{16}2,4,{8}3,{16}7,5,
{8}6,{16}2,4,{8}3,{16}7,5,6,4,5,3,6,4,5,4,
{8}5h[8:1],{16}4-8b[8:1],5,{4}3,{8},7/5,6/4,5/3,
{4}4q8[8:1]/2-4<3<1>4[1:1],2/4,{24},,,,,,,,,,,,,,,,,8x,
7x,6x,{3}5xh[6:19],{1},,,{16},{48},{8}2x/6x,
{16}3,5,
4,6,,3x,,5x/4x,,3x,{8}6x,1x/7x,{16}6,4,5,3,
,2/4,,1x,,6x/5x,,7x,{8}4x,6x/3x,2,{16}5,4,
,7h[8:1],,1x,,8x,,6x,{8}4x,5x/3x,2h[8:1],{16}4,3,
,5,,4x/6x,,7xh[8:1],,1x,{8}8x,7x/2x,3b,{16}6,5,
,3/4,,2/5,,4/6,,7,{8}5,6/4,3,{16}8,1,
,7/2,,3/4,,5,,4,{8}6,5/3,1bh[8:1],{16}8,1,
,6h[8:1],,4h[8:1],,5h[8:1],,3,{8}4,1/2,8h[8:1],{16}1,8,
,3h[8:1],,5h[8:1],,4h[8:1],,6,{8}5,{16}1x,7x,{4}8xh[2:1],
{24}7,6,5,4,3,2,{4}1xh[8:5],{24}2,3,4,5,6,7,{4}8xh[8:1],
{8},E7,E6,E5,E4,E3,E2,{16}6x,5x,
{32},4x,,,,,,,,,,,,,,,8x/1x,2x/7x,6x/3x,5xh[32:21]/4xh[32:21],{4},,,{16},,{32}1x/8x,
2x/7x,3x/6xpp5>5b[1:4],4bxqq5<5b[32:127],{8}A5f,
E
