&title=Sprout (feat.KOTONOHOUSE)
&artist=雁矢よしの(CV:高橋李依)
&first=0
&des=塵落南丘
&lv_5=12+
&inote_5=(140)
{1},
{1}5<8[2:1],
{8}4h[8:3],,,3h[8:3],,,2h[4:1],,
{8}1>4[8:3],,,,,,5,6h[8:3],,,7,8h[8:3],,,1,
{1}2q7p4[4:5],
{4},,,1h[1:1],5h[8:6],,,,
{8}26,,3,7,4h[8:3],,8h[8:1],,,
{4}6h[4:1],7h[4:1],8x-4[8:1],B2,3h[4:1],{8}2,2,1x-5[8:1],,B7,,
{4}6h[4:1],7h[4:1],8xv5[8:1],B2/E3,3h[4:1],{8}2,2,1xv4[8:1],,B7/E7,,
{4}5h[4:1],6h[4:1],7xp5[4:1],C,4h[4:1],{8}3,3,2xq4[4:1],,C,,
{4}6h[4:1],7h[4:1],8,8xb-4b[8:1],4bqq4>1[2:1]*pp4<7[2:1]/Cf,,,,
{12}6h[4:1],,,4,5,3,4,,2,1h[4:1],,,
{12}5,3,6,4,7,5,8h[4:1],,,
{12}5,7,4,6h[4:1],,,4h[6:1],,B7,3h[6:1],,E6,2h[4:1],,,
{12}5,3,6,4,,7,5>2[8:1],,,57,,,
{12}7,1,7,1>4[8:1],,5h[12:1],1x<6[8:1],,5h[12:1],1x,,,
{12}6,4,6,4<7[8:1],,,24,,,3,7,4,
{12}8x<2[4:1],,,C,,,1b,,,6,2,5,
{12}1x>7b[4:1],,,C,,,8b,,,B1/B7/C/B4/B2/B6,,,
{8}3-8[8:1],7,3,7,2-5[8:1],6,2,6,4-2[8:1],8,4,8,1<6[8:1],5,1,,
{8}6-1[8:1],2,6,2,7<4[8:1],3,7,3,
{12}2x,1x,8x/4x,5x,6x,3x/7x,2xp6[8:1]*v5[8:1],,,2b,,,
{8}6-1[8:1],2,6,2,7-4[8:1],3,7,3,5-7[8:1],1,5,1,8>3[8:1],4,8,,
{8}3-8[8:1],7,3,7,2>5[8:1],6,2,6,
{8}8h[8:1],5h[8:1],1h[8:1],6h[8:1],2w6[8:1],,2bx,,
{8}Ch[8:3],5,6,7,82,13,24,,
{8}Ch[8:3],8,8<5[12:1],8>3[12:1],8-4[12:1],,,,
{16}7,,4,5,4,,71,,6,,3,4,3,,82,,
{8}1h[8:1],B6,2h[8:1],E8,4h[4:1],,B7/E7f,,
{16}2x/4x,,3,4,3,,B8,,3x/5x,,4,5,4,,B7,,4x/6x,,5,6,5,,B1,,7,,8,,6bx/1bx,,,,
{16}5,3,5,3,6,4,6,4,5,2,5,2,4,7,4,7,
{32}1x,2x,3x,4x,5x,6x,7x,8x,1x,2x,3x,4x,5x,6x,7x,8x,
{2}1bx/Cf,
{4}2q5p8[4:3],C,,,
{8}7,6,15,26,7<4[8:1]/3>8[8:1],,7b/3b,,
{4}7p4q1[4:3],C,,,
{8}2,3,84,73,2-5[8:1]/6-1[8:1],,2b/6b,,
{4}8qq4[2:1]/4qq8[2:1],48,,,
{8}1h[8:1],5,2h[8:1],6,3<6[8:1]/7>2[8:1],,7b/3b,,
{4}1p5[8:1]/5p1[8:1],5b/1b,
{8}2,6,3,7,2x>4[8:1],4x<6[8:1],6x<8[8:1],8x>6[8:3],,Chf[8:3],,,,,
{8}8,8,2>5[8:1],2,1v6[8:1],1,2>5[8:1],2,1v6[8:1],1,3b,,
{8}2,2,7<4[8:1],7,8v3[8:1],8,7<4[8:1],7,8v3[8:1],8,7<4[8:1],7,1>4[8:1],1,6b,,
{8}7,7,2-5[8:1],2,6-1[8:1],6,2-5[8:1],2,6-1[8:1],6,3-8[8:1],3,7<4[8:1],7,2b,,
{8}1,1,5-2[8:1],5,1q3[4:1],1,5b,,6,6,4-7[8:1],4,8p6[4:1],8,4b,,,,
{4}2xq4[2:1],Cf,4xq6[2:1],Cf,6xq8[2:1],Cf,8xq2[2:1],Cf,
{4}2xq4[2:1],Cf,4xq6[2:1],Cf,6xq8[2:1],Cf,8x,,
{4}7xp5[2:1],Cf,5xp3[2:1],Cf,3xp1[2:1],Cf,1xp7[2:1],Cf,
{4}7xp5[2:1],Cf,5xp3[2:1],Cf,3xp1[2:1],Cf,1x>5qq5[1:1]*<5pp5[1:1],,
{1},
{8}2,,B5/B6,,3,,B6/B7,,4,,B7/B8,,5,B2,6,B1,
{8}7,,B4/B3,,6,,B3/B2,,5,,B2/B1,,4,B7,3,B8,
{8}2,,B5/E5,,3,,B6/E6,,4,,B7/E7,,5,E2,6,E4,
{8}7,,B4/E5,,6,,B3/E4,,5,,B2/E3,,4-8[8:1],,,,
{1},E
