&title=Across the nightmare
&artist=上高治己
&first=0.03
&des=Lushan
&lv_5=14
&inote_5=(150)
{16},,,,4,6,5,6,5,6,5,6,5,6,5,6,5,74,63,,
2,,3,5,,5,6,,7,,6,4,,4,3,,2,,3,5,,5,6,,8,,,4b/3b,,,,,
2,,3,5,,5,6,,7,,6,4,,4,3,,2,,3,5,,5,6,,8,,,4b/3b,,,,,
7,,64,5,,4,35,,2,,35,4,,5,64,,7,,64,5,,4,35,,1,,4,5b/6b,,,,,
7,,64,5,,4,35,,2,,35,4,,5,64,,7,,64,5,,4,35,,
1b>4[12:1],,,5b<8[12:1],,,2b-6[4:3],,,,,,
,,8,,,,8,,,,8,,1,1,1,1,3,3,3,3,5,5,5,5,6,,1b,,
3b/4h[8:1],,8,,3h[8:1]/4,,8,,3/4h[8:1],,6,5,3h[8:1]/4,,8,,
1b,,7,6,,4,5,,1b,,3,4,,6,5,,
3/4h[8:1],,8,,3h[8:1]/4,,8,,3/4h[8:1],,6,5,3h[8:1]/4,,8,,
1b,,7b,6,,4,5,,1b,,3b,,5,5,4,4,
6/5h[8:1],,1,,6h[8:1]/5,,1,,6/5h[8:1],,3,4,6h[8:1]/5,,1,,
8b,,2,3,,5,4,,8b,,6,5,,3,4,,
6b,7,1,2,6,5,2,3,7,6,3,4,6,5,3,2,7,6,4,3,6,5,3,4,
{32}6b,5,,,,,3,4,,,,,35,2<7[32:23]/6,,,
{16}4,,6,,4,,6,,4,,6,,2h,,6,,
5,5,7,7,3,3,4,4,6,6,2,2,4,5,3b/6b,,
45,,2,,35,,7,,46,,2,,35,3,7,,56,,2,,35,3,7,,56,,2,,35,3,8,,
52,,7,,64,,2,,53,,7,,64,6,2,,43,,7,,64,6,2,,43,,7,,64,6,1,,
7b/4b,,2,5,3,4,1,,46,,2,5,3,5,1,,56,,2,5,3,6,8,,56,,2,5,3,6,7,,
2b/5b,,7,4,6,5,8,,53,,7,4,6,4,8,,4b/3b,,7,4,6,3,1,,42,,7,4,6b,8b/5b,,,
{48}7b,6,5,,,,,,3,4,5,,,,,,7,6,5,,,,,,
2b,3,4,,,,,,6,5,4,,,,,,2,3,4,,,,,,
6b,7,8,,,,,,3,2,1,,,,,,6,7,8,,,,,,
4b,3,2,,,,,,5,6,7,,,,,,4,3,2,,,,,,
6b,5,4,,,,,,2,3,4,,,,,,6,5,4,,,,,,
3b,4,5,,,,,,7,6,5,,,,,,3,4,5,,,,,,
6/3b,7,8,,,,,,4/7b,3,2,,,,,,3b/6,7,8,,,,,,
{32}4,3,2,1,8,7,6,5,4b/8b<5[8:1],,,,4,,,,
{16}8-4[8:1]/3,,,,1/8<5[8:1],,1,2,8-4[8:1]/3,,,,
1/8<5[8:1],,,,8-4[8:1]/3,,,,1/8<5[8:1],,1,2-6[12:1],8/3,,,4b,,,,,
8-4[8:1]/3,,2,,1/8,1,,,7-3[8:1]/2,,1,,
8>3[8:1]/7,8,,,8<5[8:1]/6,,7,,2/8-4[8:1],,1,,8/4,,,7b,,,,,
1-5[8:1]/6,,,,8/1>4[8:1],,8,7,1-5[8:1]/6,,7,,
8/1>4[8:1],,7,,1-5[8:1]/6,,,,8/1>4[8:1],,8,7-2[12:1],1/6,,,5b,,,,,
5/7,,{24}5,4,3,{16}2,,4,,3-8[6:1]/5,,7-4[6:1]/1,,
3,,7,,,,8,,5/1-6[12:1],,6,,1b/7b-3[12:1],,,7b/2b-5[12:1],,,2b/6b,,
,,8,,3,5,1,,46,,8,,3,5,1,,8,8,8,8,6,6,6,6,4,4,4,4,3,,8b,,
21,3,4,57,4,3,28,3,4,56,4,3,21,3,4,5,
6-1[8:1]/7h[8:1],,,,6-2[8:1]/5h[8:1],,,,6b/8b,,,5b,,,,,
5h[8:1]/3,,1,,6,4,8,,6h[8:1]/4,,2,,6,4,8,,7h[8:1]/5,,3,,6,4,8,,5>2[12:1],5,,8b,,,,,
4,5,6,7,8/1-5[8:1],,24,,1/8>3[8:1],,6,,4/8,,6,,48,,1,,37,,1,,2-6[12:1]/6,,,4b,,,,,
7,5,5,5,3,5,5,5,2,4,2,6,4,6,8,,7,5,5,5,3,5,5,5,7>2[8:1],,,1b/6b,
