&title=I.M.I
&artist=打打だいず FEAT. 月乃
&first=0
&lv_5=14
&des_5=White Ink
&inote_5=
(192){4},,,,{1}1>8[4:27],
{2},Ch[2:1],
,,,Ch[2:1],
,,,Ch[2:1],
,,{1}Ch[4:3],
{4},3-5[16:1],6h,{8}7,7,
,2,,3,{2}3h[4:1],
{4}6-4[16:1],6,3h,{8}6,6,
,4,,6,{2}7h[4:1],
{4}8h[8:11],{8},,,,3,4h[2:1],
,,,,,3,2,1h,
,,{4}1-5[2:3],{16},,,,,,,B7,
,,,B3,,,,B6,,,{8}B3,{4}B4,
,7/4-8[8:1],2/4,{8}2,2-5[16:3],
,,,,7,8h[8:3],,,,,{4}2/5-1[8:1],
7/5,{8}6,3-8[8:1],
7v4[8:1],3,{4}7,{8}3-6[8:1],7-2[8:1],3,7,
,,{4}4/5,{8}4/3,3,2/5,2,
1/6,1,{16}8/7,,,5/6,,6,,7/4,,7,,8/3,
,8,,1/2,,8/3,,4/7h[4:1],,,,,,,{8}2-6[8:1],
,2/7-3[8:1],,7/4-8[8:1],,4/5-1[8:1],,5b,
{24},,,,{12}A1,D2,A2,D3,A3,D4,2,3,4,3,
4,5,4,5,6,7h,4,3,2,1h[6:1],{48},7,,,,{16}6,
{48},5,,,,6,,,,{16}5,{48},4,,,,5,,,,{16}4,{48},3,,,,4,,,,{16}3,{48},2,,,,6,,,,{16}2,
{48},6,,,,2,,,,{16}7,{48},2,,,,7,,,,{16}2,{48},8,,,,2,,,,{16}8,{48},2,,,,,,,,,,,{8}1-5[6:1],
1,{4}1,{16},6-8[8:1]/5-2[8:1],,5/6,,6/5,,,,,{8}2v5[8:1]/1V75[8:1],
1/2,2/1,,,,,3/4,
2/5,,6/5,{4}7/4,{8}7/3,{16}2,8,
2,8,{8}2,{16}1,1,1,1,{2}1bx-5b[8:1],
{4},4/5-7[8:1],{8}5v4[4:1],4,3,2-4[8:1],
,2h,{16},,,8v5[8:1],,,,8,,,,,,,,,{4}5/4-2[8:1],
{8}4v5[4:1],5,6,7-5[8:1],
,7h,{4}1pp5[16:7],{2}1bh[8:3],
{8}2qq5[4:3],,,,,6,7,8h[4:1],
{16},,,,,,,,,5/1,,6/2,,3/7h[2:1],,,,,,,{4}8-4[8:1],
8,{8}5h[4:1],1,
,5h[4:1],{4}2,{8}5h[4:1],3,,,{1}8/4pp8[4:9],
{2},2>4qq8[4:3],
{4},,,2/6pp2[4:9],
{16},,,,,,,,,,,,,,,4<6qq2[16:17],
{1},{4},,{2}4w8[2:1],
{8},,,,3/8h[4:1],3,{4}3,
{8}6/1h[4:1],6,{4}6,{16}5/4,,,7/3,,6/2,,8/1,
,7/3,,,2,8,2,8,3,7,3,7,2,8,2,8,
1,1,1,{48}1,,8,1h[16:7],7,,6,,5,,4,,3,,2-6[12:1],,,,,,,,,,,,,,,,,,,{8}4<7[8:1],
,2/4>1[8:1],,6/4<7[8:1],,2/4w8[8:1],,4b,
{16},,,,,,,,4,3,{8}2/8<5[8:1],,2/8>3[8:1],
,6/8<5[8:1],,2/8>4[4:1],,8/4pp7[8:5],{16},,,,,,,,,,,,,4h[8:1],
,,5,3h[8:1],,,5,
2h[4:1],,,,5,,6h[8:1],,,4,7h[8:1],,,4,8h[8:1],
,,{8}4,,3,,,{4}3<7[4:1],
7>3[4:1],3<7[4:1],{2}7>4[4:3],
{16},,,,,,,,,,,,7,6,{8}5/1>4[8:1],
,5/1<6[8:1],,5/1>4[8:1],,5/1w5[16:3],,1b,
{16},,,,,,,,7,6,{8}5/2-6[8:1],,2/7-3[8:1],
,7b/1b>4[8:1],,1b/7b-3[8:1],,7b/5bw1[8:1],,5b,
{24},,,,,,,,,E4,B3,B2,E2,E7,B7,B8,{12}E1,{48}2,,,8,,,{16}2,8,
2,8,3,7,3,7,3,7,4,6,4,6,4,6,5,5,
5-1[16:1],5,5,5,,,,,{8}1/8,1,1/7,1,
{4}1/6,{8}5/2,5,5/3,5,5/4,{16}5,4,
5,4,5,4,5,3,5,2,{2}1-5[4:3],
{8},,,1-5b[4:3],{16},,,,,,,,,,,,,1<5[2:1]*>5[2:1],
,,,,,,,,,,,,,,,,,,{8}6>6-4-2-8-6[1:5],
,,3h[4:1],
,,,2h[4:1],,,,,{1}1h[4:3],
,{4},,,{16},,,3h[16:5],
,,,,,,,,{2}1h[4:1],
{16},8/1,,,8h[16:1]/B4/B3,,,1h[16:1]/B6/B5,,,{8}2h[16:1]/B7/E7,{16},7h[16:1]/B2/E3,,,4h/B6/A6,
,,4h/B7/A7,,,{8}4h/B8/A8,{16},4x,8x,4x-8[8:1],{4}8x,
{8},,5/4,5,5/3,5,5/2,5,
2>5[8:1],2,2/6-1[8:1],6,{4}6/4w8[8:1],4b,
{8},4/5,4,4/6,4,4/7,4,4h[8:7],
7bx,2bx,6bx,3bx,{2}5bxh[4:1],
{8}5/6h[2:1],4,3,2,{4}1,8/1h,
{8}8/1h[2:1],7,6,5,{4}4,Cf,
{8},,4/3,3/4,5/2,2/5,6/1,1/6,
7/8,7/8,{16}8,7,8,7,8,7,8,7<7[16:25]*-1-3-5-7[16:25],,,,,{1}Cf,
{16},,,,,,,,,,,,3,4,2,5,
{8}1h[4:1],{16},,,,6,5,7,4,,,,4,5,4,
5,3,6,3,6,2,7,2,7,1,8,1,8,1,,2,
3,4,5,6,7,2,3,4,5,6,7,8,5,6,7,8,
1,2,3,4,2,3,4,5,3,4,5,6,{4}7qq1[4:7],
{16}7h[8:3],,,,,,,2h[8:3],,,,,,,,3h[16:9],
,,,,,,,,,,,,,,,,{8}1/2,
7/8,,5/6,{4}3/4,{8}2/3,2/1,
{16},,,8-4[8:1]/1-5[8:1],,2/7,,8/1,,,,,,,,4/3,
,8/7,,,,,,5/6,,1/2,,,{8}1/8,8/1,
{24},1b/8b,7/2,6/3,{6}5/4,{12},,,,,{4}4>1[8:11],
,,,,,,{2}5<8[8:13],
{1},{4},,{16},{48}4x,
,5x,,4x,,{16}5x,,,,,{8}4/5,
5/4,3/6,3/6,7/2,7/2,8/1,8/1,
{16},8/1,,8/1,,8<2b[8:9]/1>7b[8:9],,2/7,,8/1,{1},{4},{16},,{24},1x,
2x,3x,4x,1x,8x,7x,6x,1x,2x,3x,4x,5x-1[12:1],,,,,,5b,,,,,{4}2-6[8:1]/7-1[8:1],
2/7-5[8:1],7-3[8:1]/2-8[8:1],7/2-5[16:1],
2b/5w1[16:1],5b,{8},1-5[8:1],{16}6,5,{8}1>4[8:1],
{16}7,6,{8}1<6[8:1],,3b/1b>4b[16:1],,7b/1bw5b[8:1],,1b,
{16},,,,,,4,3,2,1,8,7,6,5,4/8,1,
2,3,4,5,6,7,8,1,2,3,4,5/1,8,7,6,5,
4,3,2,1,8,7,6,5,4,3,2,1,5,1,5,1,
5,2,6,2,6,2,7,3,7,3,7,4,8,4,8,4,
{4}1s5[16:3],1,{8}4h[8:3],6,7,8<5[8:5],
,,1,2,3,4>1[8:5],,,,,7b,
6,5,4,{4}4w8[4:3],
,,,,{2}4h[2:1],
6h[2:1],
{1}3h[1:1],
{16},,,2x,7x,2x,7x,2x,7x,2x,7x,2x,7x,2x,7x,2x,
{1}8bx-4b[4:3],
E
