&title=哈姆太郎打紫香水
&artist=ハムちゃんず [covered by 光吉猛修]
&first=0
&des=鼠鼠我鸭
&lv_7=1.4
&inote_7=(140){4},{1},,,,{4},,,{8}3,
2,{4}1,{8}3,4,,6,
{4}5,{8}7,8,{16},,{384}2,{16},{64},,,{96},{384}3,{16},,{8}4,
6,7,{4}8,{8}6,5,,3,
4,7,2/8,1,7,2/8,3,4,
3,2,{4}1,{8}3,4,,6,
{4}5,{8}7,8,{16},,{384}2,{16},{64},,,{96},{384}3,{16},,{8}4,
6,7,{4}8,{8}1/6,5,,3/8,
4,7,2/8,1/8,7,2/8,3/7,4/8,
1/8,7,2,{16}8,1,,1,{8}8,2,8,
3,7,4,{16}6,3,,3,{8}6,4,6,
3,4,3,{16}6,3,,3,{8}7,2,8,
1,6,3,{16}6,2,,2,{8}6,4,6,
3,6,2,{16}8,1,8,1,{8}8,3,1,
4,6,3,{16}5,2,,2,{8}6,1,7,
2,6,8,{16}6,1,6,1,{8}6,5,3,
4,3,6,{16}2,5,,5,{8}1,{16}7,8,1,2,
{8}3/8b,7,2,{16}6,1,,1,{8}5,8,4,
1,6,2,{16}5,1,6,1,{8}5,{16}1,5,1,7,
{8}1/8,6,3,{16}6,2,,2,{8}7,8,6,
1,5,2,{16}5,3,4,3,{8}5,{16}4,5,6,7,
{8}6/8,2,8,{16}2,7,,7,{8}3,6,4,
6,2,7,{16}1,8,2,7,{8}3,{16}5,4,6,4,
{8}3/5,7,2,{16}6,8,,8,{8}5,2,8,
3,6,4,{16}5,4,6,3,{8}7,{16}2,3,4,5,
{8}6/7,5,7,{16}6,5,6,5,{8}6,5,3,
1,3,5,{16}4,6,4,6,{8}4,{16}3,5,3,5,
{8}3/6,7,1,{16}6,5,6,5,{8}6,5,7,
4,1,3,{16}4,5,4,5,{8}4,{16}7,8,1,2,
{8}1/3,5,7,{16}6,5,6,5,{8}4,5,3,
1,3,5,{16}6,5,6,5,{8}4,{16}3,5,3,5,
{8}3/6,7,1,{16}6,5,6,5,{8}4,5,7,
4,1,3,{16}4,5,4,5,{8}6,{16}6,7,8,1,
2,1,2,1,{8}2,{16}7,8,7,8,{8}7,{16}1,8,{8}1,
{16}6,5,6,5,{8}6,{16}3,4,3,4,{8}3,{16}5,4,{8}5,
{16}4,5,4,5,{8}4,{16}5,4,5,4,{8}5,{16}3,6,{8}3,
{16}7,2,7,2,{8}7,{16}2,7,2,7,{8}2,{16}8,1,{8}8,
{16}2,1,2,1,{8}2,{16}7,8,7,8,{8}7,{16}1,8,1,8,
3,4,3,4,{8}3,{16}6,5,6,5,{8}6,{16}4,5,4,5,
3,6,3,6,{8}3,{16}7,2,7,2,{8}7,{16}1,8,1,8,
3,4,3,2,{8}3,{16}5,4,5,6,{8}5,{16}6,7,8,1,
2/8,7,{8}3,6,{16}4,5,{8}3,8,{16}2,7,3,8,
2,7,{8}2,8,{16}1,7,{8}8,3,{16}7,2,6,3,
4/5,6,{8}4,7,{16}4,5,{8}3,7,{16}5,6,4,7,
3,5,{8}4,7,{16}5,6,{8}3,7,{16}6,7,8,1,
2/7,8,{8}1,8,{16}2,7,{8}3,6,{16}5,4,6,5,
7,5,{8}6,1,{16}8,1,{8}7,2,{16}6,3,5,4,
3/5,6,{8}4,7,{16}1,8,{8}2,6,{16}1,8,1,6,
1,4,{8}2,6,3,{16}5,4,{8}5,{16}4,5,6,7,
8,1,8,1,{8}8,{16}2/7,2/7,{4}1/8,8b,
{16}2,7,{8}1,{16}8,2,8,2,7,3,{8}7,{16}4,5,3,6,
7,4,{8}8,{16}2,1,2,1,3,4,{8}3,{16}6,5,7,4,
6,5,{8}6,{16}4,5,4,5,3,6,{8}3,{16}6,3,7,2,
8,1,8,1,7,2,7,2,6,3,6,3,5,4,5,4,
6,3,7,2,8,1,7,2,8,1,7,2,8,1,7,2,
6,3,5,4,5,3,6,2,5,1,6,2,7,3,8,4,
7,3,6,2,5,1,4,8,3/7,4/8,1/5,2/6,3/7-3[1:2],4/8,1/5,2/6,
{1},{4},,,2-6[1:2],
E
