&title=凍り付いた永遠の都
&artist=上海アリス幻樂団
&first=0
&lv_5=14
&des_5=514
&inote_5=
(167){4},,,,{1}1>4[1:1],
{4},,6,7,
{1}8-5[1:1],
{4},,3,2,
{8}1-5[2:1],,,6h[8:1],,,{4}7,
{8}4-8[2:1],,,7h[8:1],,,{4}6,
1-3[8:1],6,4-1[8:1],8,
2-5-3[16:3],{8}7,7,{4}1-7-5-8[4:1],{8}4,3,
2-4[8:1],1x,7x,5x-2[8:1],,7,6,5,
4-8[8:1],,,2,{4}3-5[8:1],6,
{8}7-4[8:1],4,3,2-6[8:1],,6,7,8,
1-5[8:1],5-1[8:1],{4}4,2p6[8:1],7,
{16}8h[2:1]/E5,E4,E3,E2,E1,E8,E7,E6,E5,E4,E3,E2,{32}7x,6x,5x,4x,3x,2x,1x,8x,
,,,,,,,,{8}2h[8:1],5h[8:1],3h[8:1],6h[8:1],4h[8:1],7h[8:1],
5<8[8:1],4,3,2>5[8:1],1,8,7h[4:1],6,
{2}5b,{16}3,4,3,4,{4}3-1[8:1],
{8}6,6,{16}6,5,,5,{8}4,4x/3x,2,{16}2,1,
{8}3,3,{16}3,4,,4,{8}2,2x/1x,{16}8,7,6,5,
{8}4x/3x,2,{16}2,8,,2,{8}3,3x/1x,{4}1-4[8:1],
5x/1x-5[8:1],6x/1x-6[8:1],1x/3x,{16}5,4,3,2,
{8}1,1,{16}2,8,,1,{8}7,6x/8x,{16}1,5,1,5,
{8}8,8,{16}7,1,,8,{8}2,3x/1x,{16}8,7,6,5,
{4}4x-8[8:1]/2x-6[8:1],4/2,5x-1[8:1]/7x-3[8:1],7/5<4[2:1],
{8},,,,5,5,5,5,
{4}3-5[8:1],7h[8:1],{8},6-2[8:1],{4}3h[8:1],
3-7[8:1],3/8<4[4:1],{8}1,2,{4}3-5[8:1],
3x/6x-2[8:1],6x/7x-4[8:1],7x/2x-6[8:1],2x/1x-7[8:1],
1x/6x-2[8:1],6x/5x-8[8:1],5x/1x,{16}1,3,1,3,
{4}2-5[8:1],6h[8:1],{8},4,{4}4-1[8:1],
4/8v5[8:1],2,{8}4,5/4,{4}6/5,
4/2,5h[8:1]/1h[8:1],{8},6/2,3/7,4/8,
{1}5b/1bqq6[2:1],
{4}2/5,5/2,{8}5/2,4h[4:1]/3h[4:1],{24},,,,,,{12}5h,
6h,7h,4h,3h,2h,8h,7h,6h,1h,2h,3h,
{4}4/7,7/4,{8}7/4,6h[4:1]/5h[4:1],,,3,
3,3,{16}2,1,{8}8,7,8/7,8/7,
{4}6/1,5/2,{8}5/2,4/3,,4/3,
{12}5h,6h,7h,4h,3h,2h,8h,1h,7h,2h,8h,1h,
{8}7<3[2:1],,,2,{2}1h[8:3],
{16}8x/2h[4:1],7x,6x,5x,{8}4x,{16}1x/3h[4:1],8x,7x,6x,{8}5x,{16}2,1,2,1,
{8}3,4/3,{16}6,5,,5,{8}7,{16}4,3,2,1,{8}8h[16:1],
{12}6h,5h,7h,3h,4h,2h,6h,5h,8h,3h,4h,1h,
{8}7,6,5,{16}3,4,{8}2,1,{16}7,8,{8}7,
6/1,3,2/4,{16}5,4,5,4,{8}6,{16}5,6,{8}4,
2/1,2,{16}7,8,,6,{8}5,7/4,{16}2,8,2,8,
{12}1h,7h,1h,6h,2h,6h,3h,5h,3h,5h,4h,5h,
{16}3b,5,4,5,4,5,4,5,3,5,4,5,4,5,3,5,
4,5,3,6,4,5,2,7,{4}8x/1x,2x/7x>2[4:23],
{1}Cf,
{8},,,,,,,,,,,3x,
,,{4}4x,
{8},,,5x,,,{4}6x,
{8}7,,,6h[8:1],,,{4}5,
{8}6,,,5h[8:1],,,{4}4h,
{16}3,4,3,4,3,5,3,5,3,6,3,7,3,8,{8}3h[8:1],
{16}1,2,1,3h,8h,4h,7h,5h,{4}5/6-1[8:1],6/5<2[4:1],
5,{8}7-4[8:1],3-7[8:1],7-5-1[16:3],3,8,8,
{4}6-2[8:1],6/4V28[4:1],{8}8q7[4:1],7,6,5,
{4}4b-8[8:1],7,4b-2[8:1]/5b-1[8:1],5/4,
3b-8[8:1]/8b-4[8:1],8<5[8:1]*>3[8:1],8b,{16}2,4,2,4,
{4}3b-7-5[4:1],5-8-4[4:1],4-2-6[4:1],{8}1,8,
{4}7h[4:1],5h[4:1],{8}1,4/8,3,6/2,
{4}1b>6[4:1],7,1b<4[4:1],{8}3,2,
1h[8:1],3h[8:1],2h[8:1],4h[8:1],3h[8:1],5h[8:1],{16}4h[8:1],6,,7,
{8}5b-1[8:1],4,3,2,4>7[4:1],7,6,5,
4-8[8:1],1,2-7[8:1],3-6[8:1],2,3,8<4[8:1],8,
{4}8x/6x-1[8:1],6x/2x>6[8:1],2x/4x-8[8:1],4x>1[8:1]/7x<4[8:1],
4x/7x-3[8:1],7x/8xw4[8:1],8,{16}2,6,2,6,
{4}1b-5-7[4:1],7-4-8[4:1],8V26[4:1],{8}7,6,
{4}5h[4:1],3h[4:1],{8}8,2/7,1,6/8,
{4}5b-3-1[4:1],1bV75[4:1],{8}5,4,3>6[8:3],2,
{2}1h[2:1],{4}5b-3-1-4b[4:1],7,
{8}6-2[8:1],5,6,{16}4-8-3[4:1],3,{8}1x,7b,6b,5b,
{4}1bw5[8:1],1b,{8}3,2,1/7-2[8:1],6/8,
{4}7b/5b-8[8:1]*-8[8:1],5b-2b[8:1],5b/1b-6[8:1],1b/7b-3b[8:1],
7b/8b-4[8:1],8b/1b-5[8:1],1b/2b-6-1-3b[4:1],4bxh[8:1],
5-8-2[16:3],{8}2b-7-5[16:3],3,3h[4:1],,,2,
{4}1b-6[8:1],1b/5bpp1[8:3],{8}5,4,3,2,
{4}8bx-4[8:1]*-3[8:1],8,5bx-2[8:1]*-1[8:1],5,
{16}3xh,4h,2h,5h,8h,7h,1bh,6h,3h,4h,2h,5h,8bh,7h,1h,6h,
{8}3b-7[8:1],4,3,{16}5-1-6[4:1],6,{8}8x,2b,3b,4b,
{4}8b-5[8:1]*-4[8:1],8b,{8}3,2,1/7-3[8:1],6/8,
{4}7b/5b-1[8:1]*-2[8:1],5b-8[8:1],5b/7b-3[8:1],1b-5b[8:1],
{32}2bx-6b[8:1],3bx,{16}4bx,{32},,,,1bx-4b[8:1],8bx,{16}7bx,,,{4}1bx/2bxw6b[8:1],2b,
{32}4bx,3bx,2bx,1bx,8bx,7bx,6bx,5bx,4bx,3bx,2bx,1bx,8bx,7bx,6bx,5bx,{4}4bx-8[8:1],4b,
{32}2b/1,3,4,5,{8}6,{32}7b/8,6,5,4,{8}3,{32}1b/8h[8:1],2,3,4,{8}5,{32}8b/1h[8:1],7,6,5,{8}4,
2b/8h[8:3],3,{4}5,{8}7b/1h[8:3],6,{4}4,
{16}2bh,8h,3h,7h,5h,6h,4bh,7h,2h,1h,4h,8h,2bh,6h,{32}4,3/5,2/6,7/1-4[32:81],
{1}E1f/8b-5[2:5],
{2},,,,1h[2:1],
2>5[4:11],
{1}6<1[4:9],
,,{16}3x,
4,3,4,{8}3,{16}1x,8,1,8,{8}1,7/2,7/2,
{1}1b,
E
