&title=コラージュ
&artist=三月のパンタシア
&first=0.045
&lv_5=11+
&des=Ganda
&inote_5=
(138){4},,,,{8}2qq3[8:5],
{4},,,{8}6qq7[8:5],
{1},{8}4qq5[8:5],
{4},,,{8}8qq1[8:5],
{1},{8}7h[4:7]/3qq5[2:1],
{4},,,{8}4pp2[2:1],
{1},{8}1h[8:7]/5<4[2:1],
{4},,,{8}5pp5[8:5]*qq5[8:5],
{1},{4}6h[8:3],
{8}4,3h[2:1],,4,5,6h[8:3],
,3,2,1h[4:1],,8,7,6,
3,4,5,6h[1:1],,2,3,4,
,3,4,5>2[4:1],{2},{4}5h[8:3],
{8}1,2h[1:1],,3,4,5,
,4,5,6h[2:1],,3,2,1,
{4}1>5[8:3],{8}5,6,7,8qq4[4:3],,8,
{1},{4}5/3h[8:3],
{8}4,5h[2:1],,4,3,2h[2:1],
,4,5,6h[4:1],,1>5[2:1],5,1,
6,7,8,8<5[4:1],,4,3,2>5[4:1],
,5,6,7h[8:3],,3b,{4}2b,
1/8h[8:3],{8}2,1>4[4:1],,7,8,1<6[4:1],
,4,3,2h[4:1],,5,6,7,
{4}8<5[4:1],5<8[4:1],{8}2,1pp4[4:3],,1,
,,,,,7b,{4}6b,
{1}2qq4[8:11],
5-8[8:3],
7qq8[4:5],
{4}2>4[4:1],{2},{8}7,6-8[4:1],
{4},{8}3,2-4[4:1],,5,6,7-4[4:1],
,3,2,1>5[8:3],,5,6,7,
{4}8<5[4:1],5>2[4:1],2<7[4:1],7<4[4:1],
4,1pp5[4:3],,6h,
,8h,{8},6/4,2>5[8:1],5,
{4}2/6-1[8:1],{8}6,2>5[8:1],,2/7-4[8:1],8,7,
,3,{4}2qq3[8:3],{8}4,5,6,7<5[8:1],
{4},{8}2,1-4[8:1],,1/5-8[8:1],,5,
,3>1[8:1],{4}3,{8},7h[4:1],4,2,
1>4[8:1],5<8[8:1],1,5,,3h[4:1],8,6,
2-5[8:1],6-1[8:1],2,6,,3,7h[4:1],2,
{4}1h[4:1],5pp1[8:3],{8}1,2,,4h[4:1],
,8b,{4}8b,{8},3/5,7-4[8:1],4,
{4}7/3>8[8:1],{8}3,7<4[8:1],,7/2-5[8:1],1,2,
,6,{4}7pp6[8:3],{8}5,4,3,2>4[8:1],
{4},{8}7,8-5[8:1],,8/4-1[8:1],,4,
,6<8[8:1],{4}6,{8},2h[4:1],5,7,
8<5[8:1],1>4[8:1],8,1,,6h[4:1],3,2h[8:3],
{4}4<7[8:1],{8}4,1>4[4:1],,1,7,6,
{4}6h[4:1],4pp8[8:5],{8}3,2,,1>5[2:1],
,,,,,8,7,6pp5[8:5],
4qq5[2:1],{4},,,{8}4w8[8:5],
E
