&title=刀刃所栖之物
&artist=塞壬唱片-MSR/青木征洋/Feryquitous
&first=1.3177
&des=皿良皮车
&lv_5=14+
&inote_5=(180)
{4},,,{24},,,,2,3,
{8}4>5[90#8:5],,,,B5,,B6,,
B7,,B8,,B1,,B2,,
6,6,5<4[90#8:4],,B4,,B3,,
B2,,B1,,B8,,,{24},7,6,
{8}5h[4:7],,,,4,,2,,
8,,6,,4,,2,,
3,5,4h[4:5],,7,,1,,
3,,5,,7,,,{24},2,3,
{8}4>5[90#8:5],,,,,,,,5<4[90#64:95],,,,,,,,
8-2-6-4b[90#8:8],,,,,,,,,,,,,,,,,,,,,,,,
3h[4:1]/4b,,4,,2/5,,6,5,
7-1[90#16:1],5,6,,4,3,2,,
7,8,6,,5/7,,4,5,3-1[90#16:1],
6,4,,8,8,8,8,
2-6[90#16:1]/6,,4/5,,2/7,,7,8,
6-4[90#16:1],1,7,,1,2,3,,
{12}4/B6,B7,B8,B1,B2,B3,E6,E7,E8,E2,E3,E4,
6,5,6,3,4,3,6,5,7,3,4,2,
{8}5-8[90#16:1],,3/4,,2-7[90#16:1],,7,6,
5-1[90#16:1],,,,3<6[90#16:1],,2,,
8-4[90#16:1],,,,4,,2h[8:9],,
6h,6h,6h,6h,6h,6h,6h,6h,
3/7-3[90#16:1],,4/5,,2>5[90#16:1]/7,,1,,
6V84[90#8:1],,,,4,,3,,
2,2,5,4,5/7h[4:1],,3,2/4,
,,{24}1b/7b,6,5,4,,,,,,8b/2b,3,4,5-1[90#16:1],,,,,,
{8}5,7,5>2[90#16:1],6,5,8,5,7,
5<8[90#16:1],4,1>4[90#16:1]*q5[90#16:1],2,5,,1<6[90#16:1],,
1,3,1-5[90#16:1],2,1,4,1,3,
2V48[90#8:1],6,1,8,2,6,4<7[90#16:1],,
4,1,4-8[90#16:1],2,4,1,4,3,
4-7[90#16:1],6,1-3[90#16:1]*-5[90#16:1],8,4,,1-4[90#16:1],,
2,6,1,7,2,5,8,7h[8:7],
{24}2,3,4,,,,2,3,4,,,,1,2,3,,,,1<6[90#16:1],2,3,,,,
{8}1,4,1-5[90#16:1],2,1,4,1,3,
2/4>2[90#16:1],1,5/7,8,{16}7,6,5,,8>3[90#16:1],,,,
{8}8,5,8-4[90#16:1],7,8,5,8,6,
7-4[90#16:1],8,2-5[90#16:1],3,7,1,2-7[90#16:1],6,
3,5,2>5[90#16:1],6,1,7,2,8,
7-4[90#16:1],6,3-8[90#16:1],2,7,3,5,6,
1b-5b[90#16:1],,B7/B3,,1/7-3b[90#16:1],,B2/B4,,
7/2-6b[90#16:1],,B5/B7,,8,8,8<5[90#16:1],8,
3/4,,2/8,,1-4[90#16:1],{24}1/7,6,5,{8}4-7-2[90#8:1],7/8,
1/6h[4:1],,,,4,1/2,7/8>3[90#16:1],5/6,
8,,7/8,,1-5[90#16:1],{24}2/8,3,4,{8}5-2-7[90#8:1],2,
1/3h[4:1],,,,{16}8,6,8,6,4<7[90#16:1],6,4,6,
{8}3,,2/4,,4-1[90#16:1],{24}4/6,7,8,{8}1-6-3[90#8:1],8,
4/7h[4:1],,,,6,7/8,1-4[90#16:1]*-6[90#16:1]/2,{16}3,4,
{8}5/8,,1,,1,{24}2/7h[4:1],3,4,{8}5,,
{16}1,2,3,4,5,6,7,8,1-4[90#16:1]/5,4,3,2,1-5[90#16:1],8,7,6,
{8}1-3[90#16:1]/5,5,1/6,6,1/7-5[90#16:1],7,2/8-4[90#16:1],2/8,
7/3,3,2/8,2,{16}1-6[90#16:1]/7,2,{8}3,4-8[90#16:1]/8,3,
1/2,3,4-1[90#16:1]/7,7-4[90#16:1],{16}1/7,2/6,{8}3/5,4,7,
{24}1,2,3,,,,1,2,3,,,,{16}8-5[90#16:1],6,8,6,8-4[90#16:1],,1,,
{8}2/8-6[90#16:1],2,1/8,1,3-5[90#16:1]/8,3,2-6[90#16:1]/6,2/6,
3/7,7,2/8,8,1-5[90#16:1],3/4,2/6,,
1,6,7,8,1h[8:3],,4,3,
1/2,1/2,2/3,2/3,3/4-1[90#16:1],4/5,4/6,4/7,4V62[90#8:1]/8,
8,8,8,4/7-3[90#16:1],7,7,7,
1/7V51[90#8:1],1,1,1,2-5[90#16:1]/7,2,2,2,
2V84[90#8:1]/8,8,8,8,2>5[90#16:1]/7,7,7,7-3[90#16:1],
2,8,1-5[90#16:1],7,2-7[90#16:1],8,1,,
4/2V84[90#8:1],4,4,4,2-6[90#16:1]/3,3,3,3,
5/2-5-1[90#8:1],5,5,5,2/6-8[90#16:1],6,6,6,
6-4[90#16:1]/2,2,2,2,6/1,1,1,1,
2h[4:1]/4,5,6,4/7h[4:1],3,2,5/1,,
{16}2,4,3,4,3,4,3,4,1,5,3,5,3,5,3,5,
1,5,4,5,4,5,4,5,8,6,4,6,4,6,4,6,
1,6,5,6,5,6,5,6,2,7,4,7,4,7,4,7,
2,7,3,6,4,5,1,8,2,7,3,6,1,8,1,8,
{12}2,4,3,7,5,6,1,4,3,8,5,6,
2,2,5,7,7,4,1,1,6,5,5,8,
1,2,3,7,8,1,5,6,7,3,4,5,
{16}1,2,3,4,7,8,1,2,5,6,7,8,3,4,5,6,
1,7,2,8,3,1,4,2,4-2-6-8[90#8:3]*-6-1-4[90#8:3],3,4,5,4,,,,
{8},,,,,,,,
4-1[90#16:1]/8,4,4/2,4,4/7-4[90#16:1],7,7/6,7,
1-5[90#16:1]/7,1,1/2,1,1/6,6,6/8,6,
2/6,3,4/8-4[90#16:1],7,{16}1/6,2,{8}3,8,2,
1-5[90#16:1]/3,1,1/6,1,1/7,7,7/8,1,
2h[8:1],4,7h[8:1],5,1,3,1-3[90#16:1],7,
{24}1x,8x,7x,4,,,{8}1-4[90#16:1],6,{24}1x,8x,7x,4,,,{8}1-5[90#16:1],6,
{24}1x,8x,7x,5,,,{8}1,6,8,1,2,3,
4/5,6,7/8,1,2-5-3-8[90#6:1]/3,4,3/5,,
2b/7b>2[90#16:1]`B3f`B2/B4,,,7-3[90#16:1],{24}7x,6,5,4,,,{8}3<6[90#16:1],7,
,8z4[90#16:1],2,,3h[8:1],,,,
{32}4,5,6,7,8,1,2,3,4,5,6,7,8V64[90#16:1]/4,,,,{16}2,1,2,,8-4-2[90#8:1],,1/8,,
{8},4,5,6,7pp4[90#6:1],8,1/3,4,5/7,,,3<6[90#16:1],{16}2,2,2,2,2V84[90#8:1],,1,,
{8},5s1[90#16:1],3,,2h[8:1],,,,
{24}2-8-3-7[90#8:1]/8,3/7,4/6,5,,,{8},6-1[90#16:1],2,,,{24}8,1,2,
{8}3h[8:3],2,4,6,2/8-4[90#16:1],3,4/5,6,
8b<5[90#16:1]/7h,,,8v3[90#16:1],{24}3,2,1,{8}8,4V62[90#8:1],7,
,1,8,7,6,5h[4:1],,,
{32}1v6[90#16:1],2,3,4,5,6,7,8,{8}1,2<7[90#16:1],1/3,,6,4-8-6[90#8:1],
,8,1,2,3pp8[90#6:1],4,5/7,8,
1/3,,,,{48}7-4[90#16:1],,6,,5,,,,,1,,2-7[90#16:1],,3h[48:5],,,,,,,,,,,
{8}7V13[90#8:1]*V15[90#8:1],2,5,,,,,,
{24}3/6,2/7,1/8h[24:19],,,,{8},,1,2,3,4,
5,6,7,8,1/2,3,4/5,6,
{1}1-5-2-7-4[90#8:12]/7-3-8-5-2[90#8:12],,,
{8},,,,,,,{24},2,3,
{8}4h[4:7],,,,8,,6,6,
5,,3,,1,,7,,
6,3,5h[4:5],,1,,7,7,
6,,4,,2,,,,
{24}2/6,3/7,4>5<4[90#48:74]/8,,,,{8},,6,6,8,,
1h,,3h,,5h,,7h,,
1,2,3,,4h,,2h,,
8h,,6h,,5h,,,,
7-3[90#16:1],,2,1,7<4[90#16:1],,2,,
7>2[90#16:1],,2,2,7,,4,,
7,7,5,6,3,3,5,4,
5-2[90#16:1]*-8[90#16:1],,1,1,,,,,
2-6[90#16:1],,7,8,2>5[90#16:1],,7,,
2<7[90#16:1],,7,7,2,,5,,
{24}2/6,,,,,,,,,2/6,3,,,,,,,,2/6,3,4,,,,,,,
2/6,3,4,5,,,,,,1/6,2,3,4,5,,8,,,,,,
{8}2h[8:3],,4,4,2h[4:1],,{12}4,3,4,
{8}2<7[90#8:1],,2h[2:1],,,,,,
7h[4:1],,5,,7h,7h,7h,7h,
7>2[90#8:1],,7h[2:1],,,,,,
2h[4:1],,{16}4,3,4,,{8}2h[2:1],3,3,,
4h[2:1],,5,,3h[2:1],,2,,
7h[4:1],,{16}8,1,2,,{8}3h`8h,3h`8h,3h`8h,3h`8h,
2h[4:1],,4h[4:3],,6-2[90#16:1],,,,
