&title=時としてバイオレンス
&artist=「邪神ちゃんドロップキック‘」オープニング
&first=0.01
&des=Tane
&freemsg=「邪神ちゃんドロップキック‘」オープニング
&wholebpm=
&des_1=Tane
&des_2=Tane
&des_3=Tane
&des_4=Tane
&des_5=Tane
&lv_5=12
&inote_5=(182){1},,
{2}5h[2:1],2h[2:1],4q5[8:5],,
{2}4h[2:1],7h[2:1],6pp3[8:5],,
{4}5,4,3,2,
4,5,6,7,
{1}1^4[8:6]/8^5[8:6],,
{4}2q6[8:1],7,2q6[8:1],7,
2q6[8:1],7^1[8:1],2q6[8:1],7,
{4}3^5[8:1],7,3^5[8:1],7,
3^5[8:1],7^1[8:1],6-2[8:1],7,
{8}8,8,1,1,
7,7,2,2,
6,,56,,
3,,34,3,
{4}2^5[8:5]/7^1[8:5],,,,
{8}8,8,2,2,
6,6,4,4,
{4},5,,6,
,7,,8,
,1,34,8,
56,45,{8}34,3,3,,
{4},4,,3,
,2,,1,
8,65,1,
43,54,56,{8}6,5,56,,
{8}7-4[8:1],4,7,,
4-8[8:1],3,,3-8[8:1],
,,7,,
8-4[8:1],7,8,,
{8}6,5,6,,
56,,34,,
8,1,2-5[8:1],1,
2,7,7,,
{8}2^5[8:1],5,2,,
5-1[8:1],6,,6-1[8:1],
,,2-5[8:1],,
7-4[8:1],,1,,
{8}12,12,,,
78,78,,18,
18,18,18,,
{16}27,,3,4,
2,,6,5,
{4}7^4[8:5],5,4,3,
2^5[8:5],4,5,6,
8^5[8:5],4,3,2,
1^4[8:5],5,6,7,
{4}8-5[4:1],5-2[4:1],2-7[4:1],7-4[4:1],
4-8[4:1],8z4[4:1],4-8[4:1],,
1p5[4:1],5p1[4:1],1<5[4:1],5>1[4:1],
7,6,{8}2-6[8:1]/3-6[8:1],23,,,
{8},5b/6b,5b/6b,,
,3b/4b,3b/4b,,
4b/5b,4b/5b,3b/6b,3b/6b,
2b/7b,,,,
{4}2-6[8:1],7,2-5[8:1],7,
2-6[8:1],7-3[8:1],5-1[8:1],,
{4}7-4[8:1],3,7-2[8:1],3,
7-3[8:1],8-4[8:1],1-5[8:1],,
{4}2-4[8:1],6-8[8:1],2-7[8:1],6,
1-4[8:1]/5-8[8:1],15,3-6[8:1]/7-2[8:1],37,
4^1[8:1]/8^5[8:1],,1v4[8:1]/5v8[8:1],,
{8},26,,34,
,56,7,56,
{4}7-3[8:1],2,7-4[8:1],2,
7-3[8:1],2-6[8:1],4-8[8:1],,
{4}2-5[8:1],7,2-7[8:1],5,
2-6[8:1],1-5[8:1],4-8[8:1],,
{4}7-5[8:1],3-1[8:1],7-2[8:1],3,
8-5[8:1]/4-1[8:1],84,6-3[8:1]/2-7[8:1],62,
5^8[8:1]/1^4[8:1],,8v5[8:1]/4v1[8:1],,
{8},37,,56,
{16},,3,4,
3,4,2,5,
{4}1^4[8:1],1,1^6[8:1],1,1^4[8:1],1-5[8:1],1^6[8:1],,
{4}5^2[8:1],5,5^8[8:1],5,5^2[8:1],5^8[8:1],5-1[8:1],,
{4}2-6[8:1],12,7-4[8:1],78,
1-4[8:1],1-6[8:1]/8,1-5[8:1]/2,1^6[8:1],
{8},,,,
{16}45,,2,4,
3,,7,5,
{4}6h[4:4],,,,
{1},,,,,,,,,,,,,,,,
