&title=『ないない』
&artist=ReoNa
&first=0.665
&des=Kscore
&lv_5=13.5
&inote_5=(130)
{4}1,1,1/Cf,1,1/B8,1/B7,1/B6,1/B5,1/B4,1/B3,1/Cf,1/B2,1b,,4h[12:1]/5h[12:1],,
{8}3h[4:1]/6h[4:3],,,5,4h[4:3],,,5,6h[4:5],,,5,A7/B7,A5/B5,A1/B1,A3/B3,
2h[4:3],,,4,5h[4:3],,,4,3h[4:3],,,4,A2/B2,A4/B4f,A8/B8,A6/B6,
{8}7h[8:3]/1h[4:1],,,3h[8:3],4h[8:3],,,2h[8:3],5h[8:3],,,8,75,46,35,47,
5h[4:1]/1h[8:3],,,C,4h[4:1]/8h[8:3],,,C,B2/B3/B7/B6/E7/D7/E3/D3,,,,4b/5b,,,,
{8}1V75[8:3],,2,3,3V17[8:3],,4,5,5>2[8:2],,6,7,8q2[8:2],1,2,3,
4V68[8:3],,3,2,2V46[8:3],,1,8,8>3[8:2],,4,4,4bq5[8:2],,5b,,
{8}6h[8:2],,4,5,4/6h[8:1],5,4h[8:1]/6,5,3/7h[8:1],5,3h[8:1]/7,5,3v8[8:1]/7,,
{8}63,5,4v7[8:1]/8-3[8:1],,48,,5v2[8:1]/1-6[8:1],,51,,3b/7b,,,,,,
{8}2/1pp6[8:4],,8,7,6,5,4h[4:1],,{8}6<3[8:3],6q3[8:2],,,,,5b,,
6/5pp2[8:4],,4,3,2,1,8h[4:1],,{8}2>7[8:3],2q7[8:2],,,,,1b,,5h[4:1],,
{8}6-8[8:1],,36,4,6-1[8:1]/5,,36,4,5s1>8[8:6],4,3h[4:1],,,,1s5[4:3],,Ch[4:2],,,,,,,,{40}E7/E3,B2/B6,B1/B5,B8/B4,,{8},
{12}7b/3b,8b/4b,1b/5b,{8}2b<7[8:1]/6b>3[8:1],,6b/2b,,
{8}5bs1>1[8:6]/1b,,3,3h[8:2],,,1>1b[4:2],3h[8:2],,,1>1[4:2],3h[8:2],,,E4,E3,
2h[8:1],7,
1q5[8:1]/8,7,6,7,8p4[8:1]/1,2,8-3[8:1]*v1>3[8:1],,8v6-4[8:1]*<5[8:1],,,
{32},,,,1x,2x,3x,4x,5x,6x,7x,8x,
{8}1xbs5<5[8:6]/5bx,,7,7h[8:2],,,5<5b[4:2],7h[8:2],,,5<5[4:2],7h[8:2],,,E8,E7,
{16}6,,6,5,7h[16:2],,3,4,2h[16:2],,3,,7h[16:2],,6,,18,,{24}6,5,4,{8}3,2w6b[8:1],84,{32}2b,B2,C,B7/B6/B5,,,,,,,,,
{8}2b-5[8:1]/8b,3,6-1[8:1]/2,7,4-8[8:1]/6,3,7-3[8:1]/4,6,1-6[8:1]/7,2,1/4-8[8:1],5,4/1w5[8:1],2,1,,
{8}2-5[8:1],5qq4b[8:1],,,6-1[8:1],1qq8b[8:1],,,
{16}1,,{24}1b,28,37,{8}46,5,3<6[8:1]/7>2[8:1],15,3b/7b,,
{8}6b-1[8:1]/2b,7,2-5[8:1]/6,3,8b-4[8:1]/2b,7,3-7[8:1]/8,2,5b-8[8:1]/3b,6,5b/2b-6[8:1],3,2b/5bw1[8:1],4,5b,,
{16}7h[8:1]/3b,,5,6h[8:1],,4,5h[8:1],,{24}3,4,2,{16}3h[8:1],,1,,34,,
2h[8:1]/6,,4,3h[8:1],,5,4h[8:1],,{24}6,5,7,{16}6h[8:1],,8,,65,,
{8}7b/B3/B4/E4,,,,1b/B6/B7/E7,,,,
{8}8h[8:3]/B4/B3/E4,,2,2,{24}8,7,6,{8}1,26,3,
4h[8:3]/B8/B7/E8,,6,6,{24}4,3,2,{8}5,62,7,
{4}8b/4b-8[8:1],1s5b[8:1],Cf,,,
E
