&title=対象a
&artist=anNina
&first=-0.01
&des=哈牛哈牛
&lv_5=13
&inote_5=(58)
{1}
,
{4}
,{48},,,,,,,3,2,1-4[48:51],,,{4},,
{4}
,,{48}8,7,6,,,,,,,,,,{4},
{4}
2h[4:1]/4,5<3[16:5],7h[24:11],,
{4}
4h[4:1]/6,3p6[16:3],3h[4:1],{8}5,{24}2,,,
{4}
8^5[8:1],4^1[8:1],4q5[24:5],,
{12}6^8[12:1],6,,1p5[8:1],1,,4<2[24:4],4,,3,3,,
{8}
7qq6[8:1],6^1[12:1]/4,{12}2,2,,
{8}
3qq2[8:1],2q6[12:1]/1,{12}5,5,,
{12}8qq8[24:4],8,,4qq5[24:5],4,,5V71[48:7],5>6[24:5],,,,,
{12}5^2[8:1],5,,8V64[8:1],8,,1pp8[24:4],2-7[24:2],3,4,,,
{24}4/5-2[16:1],,1v4[12:1],1,,,
{8}
,,6/5pp3[24:5],18,{96}2,3,4,{32},,,{8},
{24}1p4[12:1],,4^1[12:1],4,,,,,,,,,
5^8[12:1],,5,5p8[12:1],,,{4},
{24}7^5[16:1],7,,1,,,4-7[16:1],4,,2,,,
8v5[12:1]*^3[12:1],8,,3V52[32:3],,,{4},
{24}7pp2[24:5],,5,5,,,2,,,,,,
3qq6[24:5],,4,4,,,6,,,,,,
5pp4[6:1]*p3[6:1],,7,7,,,5,,,,,,
{12}8q4[16:1]/1^4[16:1],4q8[16:1],8^5[16:1],,,,
{24}1b>6[24:4],,,4,4,,6q1[24:5],,,8,,,
1>6[24:4],,,7,7,,6<1[24:2],,,,,,
4q8[12:1],,,3,3,,4/2q6[12:1],,2,,1,,
8p2[32:5]*<2[32:5]/2,,,,,,{4},
{24}1-6[16:1]/2,,4-8[16:1],4,,,1,,4,,,,
5-8[16:1]/6,,2V46[12:1],2,,,5,,2,,,,
{4}
3>7[8:1]/7>3[8:1],7<3[8:1],
{12}2pp4[12:1],1^6[16:1],5V31[48:5],,,,
{24}8<3[24:4],,,5,5,,3p8[24:5],,,1,,,
8<3[24:4],,,2,2,,3>8[24:2],,,,,,
5qq4[32:3],,,6,6,,5/7pp1[16:1],,7,,8,,
1pp2[8:1]*qq6[24:5]/7,,,,,,{4},
{8}
3<7[12:1],15,{12}63,8,8,
{8}
6p2[16:1],84,{12}63,1,1,
{8}
3q4[6:1],2,6pp5[6:1],7,2pp7[24:8]*pp8[24:8],3,
{96}7,6,5,E
