&title=Nocturne 夜曲
&artist=Jay Chou (周杰倫)
&first=3.242
&des=speckles
&lv_5=13
&inote_5={4}(87)1>5[4:1],1,8<4[4:1],8,
3>8[4:1],3,4pp8[4:1],4,
1pp5[4:1],1,8qq4[4:1],{8}8,3,
2pp5[4:1],8,{4}2/8<4[8:1],8V25[8:1],{8}8,{16}6,7,
{8}8b/3qq7[4:1],5,{4}3,{8}4<1[4:1],3,{4}4,
{8}5>8[4:1],6,{4}5,{8}6q1[4:1],5,{4}6,
{8}2q5[4:1],3,2,8,8qq4[4:1],7,8/1q1[4:1],2,
1w5[8:3],{4},,,{16}4,4,
{8}3/5,8/7,{16}8-5[16:1],1,{8}2,{16}8,4,3,7,{8}8/1,4/6,
6/2>5[16:1],{16}8,7,{8}2/7,6,{16}1,1,7>2[8:1],6,3,4,{8}7,
,{16}4,5,{8}6-1[16:1],{16}2,3,{8}6/4-1[16:1],3,{4}4/7h[8:1],
{16}1-5[16:1],2,{8}3,{16}1/8-4[16:1],7,{8}6,8/3-1[16:1],6-8[16:1],3,6,
{16},3,7,3,6,2,6,4,{8}8-5[16:1],4/3,8,{16}3,6,
{8}2-5[16:1],1/8,{16}2/8,7,6,1,7/2h[8:1],6,{8}5,8h[16:1]/4h[16:1],6h[16:1]/2h[16:1],
8/4,{16}5/6,4,7/4,2,5,4,5/6,5/6,3/4,3,8/2,7,6,1,
{8}2b/5b,8h[8:5]/5-2<1-6-3[8:3],5,5,{4},{8},6,
6b/1>4[16:1],{16}7,6,1,6,{8}5,{16}4/5-8[16:1],5/4,3/6,3/6,{8}5/4,{16}4,3,
{8}2>5[16:1],{16}6,6,2/8,7,{8}6,{16}2/8<5[16:1],2,3,3,{8}8/1,{16}1,2,
{8}3/8-4[16:1],{16}4,3,{8}8/2xh[16:1],{16}6,5,4-1[16:1],3,6,6,4,7,{8}8,
5xh[16:1]/7-3[16:1],{16}4,4,7,2x,{8}2,{16}5,4,3/6,5,{8}2-4[16:1]/6-4[16:1],6-8[16:1]/2-8[16:1],
6/2,2/6,{16}5x,4,3,6,{8}7/2-6[16:1],8xh[16:1]/1xh[16:1],{16}2/7,7,8,8,
5/3>8[16:1],6,2,3,3,5,6,7,{32}1v4[16:1],2x,{16}3x,{32}7x,6x,{16}5x,{8}1,8h[8:1],
{32}1,B1,C,B5,8x,7x,6x,5x,{8}4,1h[8:1],{32}8,B8,C,B4,1x,2x,3x,4x,{16}5,8,{8},{16}5/4,
2,{8}6,1/7,E4/Cfh[8:3],E2,B2,{4}B3,
{8}8<4[8:1],{16}4pp6[8:1],2x,{4}8/2,{8}8v3[8:1],{16}3v8[8:1],6,{4}6/8x,
{8}5<8[8:1],{16}8v5[8:1],2,{8}5/2,4h[16:1],3v8[8:1],{16}8V24[8:1],7h[16:3],{4},{8}7-4[8:1],
{16}4-8[8:1],3,{4}7/3,{8}2<7[8:1],{16}7-4[8:1],2,{4}5/2,
{8}2b,{16}6,7,8h[8:1],1h[16:1],{8},{4}8<1[8:1]/1>8[8:1],8b/1b,
{8}7-4[16:1],{16}3-8[16:1],7,{8}7/2,3,{16}6>1[8:1],5,4,3,{4}6/C,
{8}7<4[16:1],{16}3>8[16:1],7,{8}7/2,3,{16}6<3[8:1],5,4,3,{4}6/C,
{8}6v1[16:1],{16}2v5[16:1],6,{8}6/3,2,{16}8qq4[4:1],7,6,3,{4}8/4xqq8[4:1],
1h[4:1],A8f,6h[8:3],2h[8:1],
{8}7bV53[8:1],{16}3V17[8:1],7,{4}7x/2,{16}2V46[8:1],5,{8}6V82[8:1],{4}2/8,
{8}7<3[8:1],{16}3p5[8:1],7,{8}7/1,{16}2,3,{8}4xq8[8:1],{16}8x<4[8:1],4,{4}4/2h[8:1],
{8}1V35[8:1],{16}5q2[8:1],6,{4}1/7h[8:1],{8}8-4[16:1],{16}1/6,7,{8}8,3,
7/4b>8[8:1],{16}8q8[8:1],6,{4}4/8,5q8[8:1],5/2h[8:1],
{8}6V41[8:1],{16}1V36[8:1],2,{4}6/3,{16}1<4[8:1],2,3,4,{4}1/2,
{16}7V15[8:1],6,{8}5<2[8:1],3/7,{16}3,4,{8}5>8[8:1],{16}7,6,{4}5/2,
{8}2V85[8:1],{16}5V31[8:1],6,2/7,6h[8:1],{8},{16}7-4[16:1],7,{8}8/1,{4}7/1q8[2:1],
{2}1b,Cf,
