&title=Fighting My Way
&artist=花海咲季 (長月あおい)
&first=0
&des=bbben
&lv_5=13
&inote_1=(132)
{4},,,,1,1,1,1,1,1,1,1,1,1,1,1,1,1,1,1,1,1,1,1,1,1,1,1,1,1,1,1,1,1,1,1,1,1,1,1,1,1,1,1,1,1,1,1,1,1,1,1,1,1,1,1,1,1,1,1,1,1,1,1,1,1,1,1,1,1,1,1,1,1,1,1,
&inote_5=(132)
{1},
{8}2h[2:1],,,,8h[8:3],,,6^3[8:3],{16},,,E7,,,E7,,6^3[8:2],,,E3,,,E3,,
{8}2h[2:1],,,,8h[8:3],,,6^3[8:3],{16},,,E7,,,E7,,6^3[8:2],,,E3,,,E3,,
{8}2xh[2:1],,,1,8h[8:2],,,
6^3[8:3],{16},,,E7,,,E7,,6^3[8:2],,,E3,,,E3,,
{8}2,1,8-5[8:1],,,,4-7[8:1]*-1[8:1],4,4,,,,
{16},E3,,B2/B3,,C,,B7/B6,
{16}1V35[6:1],,,78,,,,,6V82[6:1],,,45,,,
{8}3,3-8[10:1],2,7-3[10:1],6,2-5[12:1],,7,{16}6,4,6,,3,5,3,,
{16}8,8,2,1,3,8,4,7,5,6,4>6[4:1],,6,6,,,5pp7[6:1]*qq3[6:1],,5,,,,,,,,
{16}8V64[6:1],,,21,,,,,3V17[6:1],,,54,,,
{8}6,6-1[10:1],7,2-6[10:1],3,7-4[12:1],,2,{16}3,5,
{8}3h[8:1],1h[8:1],8h[8:1],6h[8:1],4-8[8:1],,,1,
2h[8:1],4h[8:1],5h[8:1],7-3b[16:1],7,,,,
{16}2q7[2:1]/5h[16:3],,,,,,,,1,,,8,,,,,7p2[2:1]/4h[16:3],,,,,,1,,1,,,8,,,,,
{16}7h[16:4],,6,,5,,4,,2h[4:1],,3,,4,,5,,
{16}48,,,37,,,2<7[4:1]/6q3[4:1],,,,,,,,,,
46,,3,5,,1,7,1,4-2[8:1]/6-8[8:1],,5,,46,,,,
53,,6,4,,8,,,17,6,5-1[8:1]/4,3,28,,
,7,7,,2,2,,7,,6,5-1[8:1]/3,,4,,57,,6,,5w1[8:1],,
{24},3x/7x,4x/6x,5bx`Cf,,,,,,
{16}7,5,6,4,5h[8:1],,2h[8:1],,
{32}4-8[8:1],3,2,1,8,7,6bxh[16:3],,
{16},,,,2,4,3,5,4h[8:1],,7h[8:1],,
{32}5-1[8:1],6,7,8,1,2,3bxh[16:3],,
{8},,2q6[8:1]/8,1,2/8p4[8:1],1,82,2-5[8:1],2-7[8:1],2-6[8:1],,,8,7,
{16}4-8[8:1]/6,,,3,3,,1,,
{16}7,5,6,4,5h[8:1],,2h[8:1],,
{32}4-8[8:1],3,2,1,8,7,6bxh[16:3],,
{8},,7-5[8:1]/1,2,3,
{16}4-8[16:1],,4,,,7-5[16:1],7,,1-3[16:1],,,,,,
8,,7,,
6/4v6[8:1],,5,,4/1,,2,,
5v3[8:1]/3,,4,,57,,6,,
45,,3,4,,4,5,,56,,8,1,8p6[16:3],,2,,
3h[16:3]/8b,,,,3-1[8:1]/5x,,4,,5-7[8:1]/3,,4,,2>5[8:1],,,,
1p5[8:1],,1,,3q7[8:1],,3,,1p5[8:1],,1,,2q6[8:1],,,,
1,,8,,7,,2,4,3,,7,5,6,,3,5,4-8[8:1],,,3,3,,2,,
1h[8:1]/6h[8:1],,,7h[8:1]/2h[8:1],,,8/3,,
3bq4[4:1],,,5,5,,6,,7,,8,,1<6[8:1]/5,,,,
5p1[8:1],,5,,7q3[8:1],,7,,5p1[8:1],,5,,8-4[8:1]*-5[8:1],,,,
8b,,,,,,4h[8:1],,6h[8:1],,8h[8:1],,2h[8:1],,,,
2h[16:3]/6h[16:3],,,,,,54,,12,,54,,87,,45,,
{32}2b,E4,E3,E5,E6,E7,E8,E1,E2,E3,E4,E5,E6/8x-5[4:1],,,,
{8},,,,4qq3[4:1]*pp5[4:1],,,,,,4w8[8:1],,
4b,,1-7[8:1],,2-6[8:1],,3-5[8:1],,,,8V63[4:1]/4V27[4:1],,,,,,
{16}8x,4,1x,5,2x,6,3x,7x,8x-2[8:1]/4x-6[8:1],,3x/7x,,,,,,
1x,5,8x,4,7x,3,6x,2,1x-5[8:1]/5x-1[8:1],,8x/4x,,,,,,
5x,1x,4x,8x,3x,7x,2x,6x,1x,5x,8x,4x,7x,3x,
{24}7x/3x,4x/8x,1x/5x,
{4}2xh[4:3]/6xh[4:3],,,,
{32}3-7[8:1]/7-3[8:1],4,5,6,7,8,1,2,
{16}Cf,,,,2,4,3,5,4h[8:1],,7h[8:1],,
{32}5-1[8:1],6,7,8,1,2,3bxh[16:3],,
{8}Cf,,2q6[8:1]/8,1,2/8p4[8:1],1,82,2-5[8:1],2-7[8:1],2-6[8:1],,,8,7,
{16}4-8[8:1]/6,,,3,3,,1,,
{16}7,5,6,4,5h[8:1],,2h[8:1],,
{32}4-8[8:1],3,2,1,8,7,6bxh[16:3],,
{8},,7-5[8:1]/1,2,3,
{16}4-8[16:1],,4,,,7-5[16:1],7,,1-3[16:1],,,,,,
8,,7,,
6/4v6[8:1],,5,,4/1,,2,,
5v3[8:1]/3,,4,,57,,6,,
45,,3,4,,4,5,,56,,8,1,8p6[16:3],,2,,
3h[16:3]/8b,,,,3-1[8:1]/5x,,4,,5-7[8:1]/3,,4,,2>5[8:1],,,,
1p5[8:1],,1,,3q7[8:1],,3,,1p5[8:1],,1,,2q6[8:1],,,,
1,,8,,7,,2,4,3,,7,5,6,,3,5,4-8[8:1],,,3,3,,2,,
1h[8:1]/6h[8:1],,,7h[8:1]/2h[8:1],,,8/3,,
3bq4[4:1],,,5,5,,6,,7,,8,,1<6[8:1]/5,,,,
5p1[8:1],,5,,7q3[8:1],,7,,5p1[8:1],,5,,8-4[8:1]*-5[8:1],,,,
8b,,,,,,4h[8:1],,6h[8:1],,8h[8:1],,2h[8:1],,,,
2h[16:3]/6h[16:3],,,,,,54,,12,,54,,87,,4h[16:1]/5h[16:1],,
{16}
3h[16:2]/7h[16:2],,,2h[16:2]/6h[16:2],,,6-8[16:1],,5,,,4,,,3,,
8,2,8,2,8,2,4,2,8,2,4,2,8,2,4,2,
3h[16:2]/7h[16:2],,,2-4[16:1]/6,,,2,,6-8[16:1],,1,1,,2,,,
2>6[8:1],,1,,7<3[8:1],,8,,2>5[8:1],,,1,,,7,,
6h[16:2]/2h[16:2],,,7h[16:2]/3h[16:2],,,,,
6h[16:2]/2h[16:2],,,7h[16:2]/3h[16:2],,,4/8,,
5,7,5,7,5,7,1,7,5,7,1,7,5,7,1,7,
6h[16:2]/2h[16:2],,,7h[16:2]/3h[16:2],,,,,1q4[16:3],,,5,,,
6v8[16:1],,7,,5v3[16:1],,4,,,,,E7,,B7/B6,,C,,B2/B3,E3f,
