&title=Lazy Addiction
&artist=sky_delta
&first=0.005
&des=Yuuki⁠☆
&lv_5=14
&inote_5=(185)
{8},,,,,,,,,,,,,,{16},{8}3-7>3b[8:7]/6-2<6[8:7],,3/6,,,,,,,,,1,1,1,7h[8:4],,5h[8:2],,,,
7xh,5xh,6xh,4xh,7>2[8:4],,,,,,3h[8:2],,5h[8:2],,,,1,1,1,1,,8,8,8,,7,2h[8:4],,4h[8:2],,,,
2xh,4xh,3xh,5xh[8:3],2xh,,2-5[8:1],6,,7-4[8:1],3,,2,,5h[8:2]/2<7[8:1],,,,6h[8:2]/B1,,3,,4/5h[8:2],
B4,B3,B2,1x-4[8:1],,6h[8:2],,3h[8:2],,B4,B5,B6/2h[8:2],B7,8x-5[8:1],,3h[8:2],,6,,7h[8:2]/5-1[8:1],,5,,
6h[8:2],,2,2,2/5,2,,7,7/4,7,,7/2,1v4[8:1]/8v5b[8:1],,,,3h[8:6]/6h[8:6],,,,,,,,{12}C,C,C,C,C,C,{8}Chf[8:4],,,,,,,,
7,6h[16:2]{16},,,,{8}2,3h[8:8]{16},,{8}1,1,1,,8,8,8,8h[8:8],,{16}E4,,E5,,E6,,,E7,,,E8,,,,E1,,,E2,,,{16}1,8,1,,{8}2/7,,
4/5,4,4,4,4/3,B2,B2,B2,4/5,5,5,5,5/6,B7,B7,B7,4/5,{16}3x,5x,4x,,6x,4x,5x,,2x,4x,3x,,7x,5x,6x,3,6,3,6,3,6,3,5,4,5,4,5,4,5,4,
6xh[8:6],,,,,,3xh[8:3],,,,,,,,,,E8,B8,B1,,,,E4,B4,B5,,C,,{8}Cf,,2h[8:1]/7h[8:1],,{16}3x,4x,5x,,8-4[8:1],,,8,,,B5,B6,B7,,B3,B2,B1,,7,,,7,,,7
,,,,8h[8:4]/1h[8:1],,,,2,,3,,4h[8:5],,,B2,,,B6,,,,8-5[115#10:1],,,3-6-2[100#10:1],,,8x,,,,3x,,,,C,,,,2/7,,1,8x<6[8:1],1,,,2h[16:5],,,5,,5h[8:1],,4h[8:1],,
6x,5,B7,,B2,4,3xh[8:1],,6xh[8:1],,3x,,3x-6[8:1],,,,7-2[8:1],,,,4-1[8:1],,,,8-5[8:1],,,,1xh[8:1],,,,,3,4x,,,6,5x,,4/5,,,,{8}2h[8:1]/7h[8:1],,{16}6x,5x,4x,,1-5[8:1],,,1
,,,B4,B3,B2,,B6,B7,B8,,2,,,2,,,2,,,,1h[8:4]/8h[8:1],,,,7,,6,,5h[16:6],,,B3,,,B7,,,,8x,,3x,,1b/2x,,,1x/2b,,,1b/2x,,,,C,,,,2/7,,8,1x>3[8:1],8,,,7h[16:5],,,4,,4h[8:1],,5h[8:1],,
3x,4,B2,,B7,5,6xh[8:1],,3xh[8:1],,6x,,3x/4,,3,,5/6x,,6,,4,5,4,5,4,5,4,5,3,6,3,6,3,6,2,7,1,8,2,7,Cf,,,,{8}5/6<2[8:6],,5,,4,,3,,3h[8:4],1,1,1,8h[8:4],,2h[8:2],,,,7h,3h,6h,4h,
5pp1[8:7],,4,,3,,2-4[8:1],,2,,,,7/3x,7,7/4x,7,5x,2,2/6x,2,5x,4x,3h[8:4],,1h[8:2],,,,2/8,2/8,3/7,3/7,4v2[8:2]/6v8[8:2],,,,,,{16}1bx,1,1,,{8}2x/8x,,3>7[8:6],,4,,5,,6,,6h[8:4],8,8,8,1h[8:4],,7h[8:2],,,,2h,6h,3h,5h,
4qq8[8:7],,5,,6,,7-5[8:1],,7,,,,2/6x,2,2/5x,2,4x,7,7/3x,7,4x,5x,6,6,1h[8:2],,7-4b[8:1],,2,3-6b[8:1],,2>5[8:4],1h[8:8],,,,,,6x,6h[8:3],,,2b,,,,,,,,,7,7,7,7h[8:4],,5,,,,6,4,5,3,4h[8:8],,,,,,1,,2,,,,7,7,7,7,,2,2,2,,6,6h[8:4],,
3h[8:2],,,,B6,B3,B7,B2,E8,,2,2xh[8:2],,7,7xh[8:2],,3,,4/5<4[8:12],,,B2,,,B1,,,B8,,,B7,,B6,,4>5[8:12],,,B7,,,B8,,,B1,,,B2,,B3,,4h[8:12],,,6,,,7,,,8,,,1,,2,,E8,B7,B6,E2,B2,B3,B7,B6,E6,B2,B3,E4,B4,,4-1[8:1]/5-8[8:1],,4b/5b
,,,,,,,,,1x,2h[8:2],,8,7,3/6,,3/6,,8x,7h[8:5],,8x,1,2,3h[8:4],8,8,8,,1,1/3,1,4x/5x,5,5,5,5/6,B7,B7,B7,4/5,4,4,4,4/3,B2,B2,B2,4/5,{16}6x,4x,5x,,3x,5x,4x,,7x,5x,6x,,2x,4x,3x,6,3,6,3,6,3,6,4,5,4,5,4,5,4,5,
3xh[8:5],,,,,,6xh[8:2],,,,,,{8}Cf,,4/5,{16}3,4x,2,,5xh[8:1],,4,,6,5x,7,,4xh[8:1],,5,,3,4x,2,,5xh[8:1],,4,,6,5,7xh[8:2],,,,3,,5,4,2x,,4xh[8:1],,6,,4,5,7x,,5xh[8:1],,3,,5,4,2x,,4xh[8:1],,6,,4,5,7xh[8:1],,,,6,,4,5,3x,,6,5,7x,,4,5,3x,,
6xh[8:1],,3,,5,4,6x,,3,4,2x,,5,4,6x-1[8:1],,,,3x-8b[125#10:1]/6x,,,,2/7,,3x/6x-1[125#10:1],,,,2/7,,6x/3x-8b[125#10:1],,,,2/7,,3/6,,,,6x,,1,8,1,8,1b,,,,3,,4x,3b,B2,,4x,5b,C,,6x,5b,B7,,4hx[8:1],,6,,5x,6b,B7,,5x,4b,C,,3x,4b,
B2h[8:1],,,,6,,4x,5b,B7,,5x,4b,B2,,4x,5b,C,,6xh[8:1],,3,,5x,4b,B2,,4x,5b,B7,,5x,4b,Ch[8:1],,,,3,,6x,4,5,4,6b,,3,4,2,,7,,2,,4/6,,3x,5,4,5,4b,,6,5,7,,2,,7,,5x/6x,,6,,6,,3x/4x,,3,,3,,7,2,7,2,5,4,5,4,5,4,5,4,C,,C,,3,6,3,6,
2xh[8:2],,,,{24}A7/E8,E7,B6,B5,,,A2/E2,E3,B3,B4,,,A7/E8,E7,B6,B5,,,{8}2bh[8:2],8,8,8,7x-3[8:1],6,7/1,,2/5,,8/7,1/6,,3/4,2/5,,{24}1b,2,3,4,5,6,7,8,1,2,3,4,{8}5x-2b[8:1]/6x-1b[8:1],,5/6,,7xh,,1/6x,1,1/6x,1,1/6x,
{16}1,2,{8}3/6x,3,3/6x,3,3x/6x,7x/2x,8h[8:2],,2-5b[8:1],,7,6-3b[8:1],,7<4[8:4],8h[8:8],,,,,,3x,3h[8:3],,,7b,
