&title=Panopticon
&artist=cybermiso
&first=-1.61
&des=
&lv_5=14
&des_5=Cactus
&inote_5=
(110){4},{8},,,,,,,,,,,,,,2/8h[8:1],
4,7/1h[8:1],5,{16}8/4>2[8:1],1/5h[8:1],,8,{4}4,
{8}7/1h[8:1],5,2/8h[8:1],4,{16}1/5<7[8:1],8/4h[8:1],,1,{4}5,
{16}2,1,4,5,1,8,5,6,{8}4/8<4[8:1],4-8[8:1],{32}4/8,3,2,1,{8}8,
3h[8:1],4h[8:1],5h[8:1],6,{16}8<5[8:1]/4>1[8:1],1/5,,8h[16:1]/4h[16:1],,,,,6bh[16:5],
4,4,3<5[16:1],3,2-6[16:1],2,3b/1<7[16:1],,2b,,1b,,,{8}2/6,
{16}3bh[16:5],5,5,6,6>4[16:1],7-3[16:1],7,8>2[16:1],6b,7b,,8b,,5,5,5,
6/4,4h[8:1]/6h[8:1],,,5/3,3h[8:1]/5h[8:1],,,4/7,7h[8:1]/4h[8:1],,,5/2,2h[8:1]/5h[8:1],,,{8}8h[16:1]/4h[16:1],
3h[16:1]/7h[16:1],6h[16:1]/2h[16:1],5h[16:1]/1h[16:1],{16}4/8-4[16:1],8/4>1[8:1]*<7[8:1],,7/1,,,,,8/4-8[16:1],
4/8<5[8:1]*>3[8:1],,3/5,,,,,4/8V64[16:1]*V24[16:1],8/4-8[8:1],,7/1,,,,,{8}3/4h[8:1],
{16}3,5h[8:1],{8}3,3/6h[8:1],{16}2,7h[8:1],{8}2,8xh[16:1]/1xh[16:1],1xh[16:1]/8xh[16:1],
{48}8/1,7/2,3/6,4h[8:1]/5h[8:1],{16},{64},,,{96},{64}B5/B4,C,B8/B1,{8}8x/1x,{48}8/1,7/2,3/6,4h[8:1]/5h[8:1],{16},{64},,,{96},{64}B5/B4,C,B8/B1,{8}1x>4[32:1]/8x<5[32:1],{4}8bh/1bh,
{16}3/6,4,5,4,3/6,5,4,5<3[4:1],3/6,4,5,4h[16:3],,,,,4/7,
6,5,6,7/4,5,6-3[16:1],5,7/4,,,,,3/7,3/7,3/7,
{8}2/6-8[16:1],4/8-4[16:1],6/2,4,5/1-3[16:1],7/3-7[16:1],1/5,7,
{16}2,2,4x,4,6,6,8x,8,1xw5[8:1],1,5w1[16:1],5x,{48},,,,,,,,,,,,8x/1x>4[16:1],
7,6,5h[16:15],,,{16}8,8,{4}1x,{8}3x-1<8-6-4[4:1],{16}4,4,{4}3x,
{16},,2,8,1>5[32:3]*q5[32:3],7,8,6,{8}1x<5[32:3]*p5[32:3],8,1x,2,
3/7,{16}5,3,6-1[8:1],2,7,1,{8}6/2-5[8:1],{16}4,4h[16:1],2,3,{8}3h[8:1],
{16}6,6,5,5,4,4,3,3,2,2,1,1,8,8,7,7,
{2}6>7[32:7],{32}6,5,4,3,2,1,8,7,{4}6b/2b-6[16:1],
{8}2/6,{16}8,8,2>6[8:1],2,6V42[8:1],6,{8}2V86[8:1]*p6[8:1],,,B4/E4/D4/A4/E5/D5,
{4}2h[16:3]/6h[8:1],{16}8>3[8:1],1,7,8,{8}8x<5[8:1],{16}4,4h[16:3],{4}8x,
3h[8:1]/7h[16:3],{16}2,8,1,7,3xh[8:3],8b,8b,8b,{4}7xh[8:1],
{8}1b/5b,{16}6,2,7,3,8,8/4h[16:5],{48},,,,,,,,,,,,{24}8x,7/A3,6/A2,5/A1,,,{12}8/1,
{24}7,8,{12}7,1/8,{24}2,1,{12}2,{4}8<1[4:1],1,
{8}8b,{16}2,7,3,6,4,4/5s1[32:5],,,,,{4}5,
{16}8,1,5,4,7,2,5,4,6,3,5,4,8/1,2/7,{8}3h[16:1]/6h[16:1],
{16}7,7,3,3,5,5,1,1s5[32:5],,,,,{4}1,
{16}5,5,{8}5,{16}1,1,2/8,7/3,6/4,{32}5h[64:1],5h[64:1],5h[64:1],5h[64:1],{16}5h[32:1],{32}4w8[16:1],4,{16}4,{8}4h[16:1],
{4}4b,{16}7h[16:1],4h[16:1],6h[16:1],5h[8:1],,4>8[16:1]*<8[16:1],,,{4}5s1[32:7]/4z8[32:7],
{16}5>2[8:1]/4<7[8:1],,,,,,,1bh[8:1],,8bh[8:1],,1b,,,{8}2b/7b,
{16}3h[8:7]/5h[8:1],,,5h[8:1],,,{8}5h[8:1],{16},5h[8:1],,,{4}5h[8:1],
{16}6h[8:7]/4h[8:1],,,4h[8:1],,,{8}4h[8:1],{16},4h[8:1],,,{4}4h[8:1],
{16}8h[8:1]/1h[16:5],,,8h[16:5],,,{8}1h[16:5],{16},8h[16:5],,,{4}1h[8:1],
{16}3h[8:1]/6h[16:5],,,3h[16:5],,,{8}6h[8:1],{16},5h[8:1]/4h[8:1],,,{4}5h[8:1]/4h[8:1],
{16}3<6[16:1],,,3/7>2[16:1],,,{8}7/3<6[16:1],{16},3/7>2[16:1],,,{4}7/3>2<8[16:1],
{16}3/7<6>4[16:1],,,7/3>2<8[16:1],,,{8}3/7<6>4[16:1],{16},7/3>2<8[16:1],,,{4}3/7z3[8:1]*s3[8:1],
7,{8}8<4>4b[8:3],4>2<8<6>4[4:1],{2}8,
{16}1,2,3,4,5/1,6,7,8,1/5,4,3,2,5/1pp5[4:1]*qq5[4:1],4/8,7/3,2/6,
{8}1,,,8/2,{16}4,7,3,8<6[16:1],2,8-5[16:1],1,8b-4[16:1],
2,8b,3,8b,{8}2h[8:1],6,{16}5,2,6,1,7<4[16:1],1-3[16:1],8,1-5[16:1],
7b,1b,7,1b,{8}8h[8:1],3,2/1b-6[16:1],8/1b>3[16:1],2/1b-5[16:1],8/1b-4[16:1],
2/1b<7[16:1],8/1b-5[16:1],2/1b,1b/8<5[16:1],1,8/2>5[16:1],1,2/8,
7-4[16:1],{16}7/3-8[16:1],7/3,{8}7b/3,3b/6,{16}5,2,6,1>3[16:1],7,1-4[16:1],8,1b-5[16:1],
7,1b,6,1b,{8}7h[8:1],3,{16}4,7,3,8,2>5[16:1],8-6[16:1],1,8-4[16:1],
2b,8b,2,8b,{8}1h[8:1],6,7/8b-3[16:1],1/8b<6[16:1],7/8b-4[16:1],1/8b-5[16:1],
7/8b>2[16:1],1/8b-4[16:1],7/8b,8b/1>4[16:1],8,1/7<4[16:1],8,7/1,
2,8z4[8:1]/1s5[8:1],5<7[32:3]/4>2[32:3],8/1,{16},,,,,,,,8/1-4[32:1],
,,1/7-2[32:1],,,{8}7/3-6[32:1],{16},3/5-8[32:1],,,{8}5/4-8[32:1],2,
{16}4/6-2[32:1],,,6/1-5[32:1],,,{8}1/7-3[32:1],{16},7/4>2<8[16:1]*<6<8[16:1],,,{4}4,
{16}1>2>3<4[32:1]/5<6<7>8[32:1],,,1p5[32:1]/5p1[32:1],,,{8}1>2>3<4[32:1]/5<6<7>8[32:1],{16},1-5[32:1]/5-1[32:1],,,{8}1/5,A1/D1/D2/E2/E1/B1/B5/E5/D5/A5/D6/E6/Cf,
{16}3h[8:1]/4h[8:1],,,8h[8:1]/6h[8:1],,,{8}2h[16:3]/1h[8:1],{32},,8,7,6,5,4,3,2,1,8,7,6,5,{16}4xh,
{64}2b,3,{32}4h[32:1],{16}8h[16:1],1h[16:1],{64}7b,6,{32}5h[32:1],{16}1h[16:1],7h[16:1],{64}3b,4,{32}5h[32:1],{16}8h[16:1],2h[16:1],{64}6b,5,{32}4h[32:1],{16}1h[16:1],7h[16:1],{48}1b,2,3,4h[16:1],,,8b,7,6,5h[16:1],{192},,,,,,,,{64}1b,
8,{32}7h[32:1],{16}6h[16:1],4h[16:1],{64}8b,1,{32}2h[32:1],{16}3h[16:1],5h[16:1],{64}8b,7,{32}6h[32:1],{16}5h[16:1],4h[16:1],{64}1b,2,{32}3h[32:1],{16}4>3>2<1<8<7<6>5[16:3],5h[16:1],{8}8h[8:1],4x,
{48}4x,3x,2x,1xh[8:1],,,,,,5,2/6,3/7,{8}4/8h[8:1],1x,{48}8x/1x,7/2,3/6,5h[8:1]/4h[8:1],,,,,,,6/3,2/7,{8}1h[16:1]/8h[16:1],2x/7x,
{16}3/8,3/8,2/7,7/2,6/1>4<4b[32:11],6/1,8/5<6<7>8>1>2>3<4[32:7],8/5,{8}1,{64},,,,,,,,,,,,,,,,6,7,8,1,2,3,4,5,
{2}6b/2b,{8}4,6,{16}3,3h[8:1],,5h,
,5h,,1h[16:3],{8}3<6[8:1],3,{4}2<7[16:1],{48}6/2>2[8:7]*>2[8:7],5,4,3h[16:17],
E
